<?xml version="1.0" standalone="no"?>
<!DOCTYPE svg PUBLIC "-//W3C//DTD SVG 1.1//EN" "http://www.w3.org/Graphics/SVG/1.1/DTD/svg11.dtd" >
<svg>
<metadata>
Created by FontForge 20090622 at Wed Apr  5 10:31:39 2017
 By deploy user
Copyright 2011 The Maven Pro Project Authors (http://www.vissol.co.uk/mavenpro/), with Reserved Font Name "Maven Pro".
</metadata>
<defs>
<font id="MavenPro-Black" horiz-adv-x="0" >
  <font-face 
    font-family="Maven Pro Black"
    font-weight="900"
    font-stretch="normal"
    units-per-em="1000"
    panose-1="0 0 10 0 0 0 0 0 0 0"
    ascent="800"
    descent="-200"
    x-height="509"
    cap-height="667"
    bbox="-667 -233 1324 1065"
    underline-thickness="50"
    underline-position="-50"
    unicode-range="U+000D-U+FB02"
  />
<missing-glyph horiz-adv-x="500" 
 />
    <glyph glyph-name="fi" unicode="fi" horiz-adv-x="708" 
d="M94 374h-69v135h71v5q1 115 52 163.5t155 48.5q17 0 39 -3.5t35 -7.5v-161q-14 16 -25.5 23.5t-31.5 7.5q-21 0 -31.5 -12.5t-10.5 -32.5v-31h99v-135h-101v-374h-182v374zM462 569v131h186v-131h-186zM464 0v499h182l2 -499h-184z" />
    <glyph glyph-name="fl" unicode="fl" horiz-adv-x="702" 
d="M94 374h-69v135h71v5q1 115 52 163.5t155 48.5q17 0 39 -3.5t35 -7.5v-161q-14 16 -25.5 23.5t-31.5 7.5q-21 0 -31.5 -12.5t-10.5 -32.5v-31h99v-135h-101v-374h-182v374zM642 0h-180v700h180v-700z" />
    <glyph glyph-name=".notdef" horiz-adv-x="500" 
 />
    <glyph glyph-name="NULL" 
 />
    <glyph glyph-name="NULL" 
 />
    <glyph glyph-name="nonmarkingreturn" unicode="&#xd;" horiz-adv-x="270" 
 />
    <glyph glyph-name="space" unicode=" " horiz-adv-x="270" 
 />
    <glyph glyph-name="A" unicode="A" horiz-adv-x="712" 
d="M497 0l-37 117h-229l-36 -117h-185l246 667h222l224 -667h-205zM275 257h140l-71 221z" />
    <glyph glyph-name="Aacute" unicode="&#xc1;" horiz-adv-x="712" 
d="M497 0l-37 117h-229l-36 -117h-185l246 667h222l224 -667h-205zM275 257h140l-71 221zM308 714l28 112h191l-133 -112h-86z" />
    <glyph glyph-name="Abreve" unicode="&#x102;" horiz-adv-x="712" 
d="M497 0l-37 117h-229l-36 -117h-185l246 667h222l224 -667h-205zM275 257h140l-71 221zM245 740.5q-35 37.5 -46 103.5h96q7 -22 22 -39t39 -17q43 0 61 56h97q-6 -64 -43.5 -102.5t-114.5 -38.5q-76 0 -111 37.5z" />
    <glyph glyph-name="uni1EAE" unicode="&#x1eae;" horiz-adv-x="712" 
d="M497 0l-37 117h-229l-36 -117h-185l246 667h222l224 -667h-205zM275 257h140l-71 221zM245 740.5q-35 37.5 -46 103.5h96q7 -22 22 -39t39 -17q43 0 61 56h97q-6 -64 -43.5 -102.5t-114.5 -38.5q-76 0 -111 37.5zM308 878l28 112h191l-133 -112h-86z" />
    <glyph glyph-name="uni1EB6" unicode="&#x1eb6;" horiz-adv-x="712" 
d="M497 0l-37 117h-229l-36 -117h-185l246 667h222l224 -667h-205zM275 257h140l-71 221zM296 -159v109h120v-109h-120zM245 740.5q-35 37.5 -46 103.5h96q7 -22 22 -39t39 -17q43 0 61 56h97q-6 -64 -43.5 -102.5t-114.5 -38.5q-76 0 -111 37.5z" />
    <glyph glyph-name="uni1EB0" unicode="&#x1eb0;" horiz-adv-x="712" 
d="M497 0l-37 117h-229l-36 -117h-185l246 667h222l224 -667h-205zM275 257h140l-71 221zM245 740.5q-35 37.5 -46 103.5h96q7 -22 22 -39t39 -17q43 0 61 56h97q-6 -64 -43.5 -102.5t-114.5 -38.5q-76 0 -111 37.5zM311 865l-123 127h177l42 -127h-96z" />
    <glyph glyph-name="uni1EB2" unicode="&#x1eb2;" horiz-adv-x="712" 
d="M497 0l-37 117h-229l-36 -117h-185l246 667h222l224 -667h-205zM275 257h140l-71 221zM243 740.5q-35 37.5 -46 103.5h96q7 -22 22 -39t39 -17q43 0 61 56h97q-6 -64 -43.5 -102.5t-114.5 -38.5q-76 0 -111 37.5zM318 925q15 0 25.5 7t10.5 17q0 23 -40 23q-14 0 -31 -4
v65q23 5 70 5q55 0 88 -20t33 -62q0 -31 -16 -49t-43 -18v-23h-97v59z" />
    <glyph glyph-name="uni1EB4" unicode="&#x1eb4;" horiz-adv-x="712" 
d="M497 0l-37 117h-229l-36 -117h-185l246 667h222l224 -667h-205zM275 257h140l-71 221zM245 740.5q-35 37.5 -46 103.5h96q7 -22 22 -39t39 -17q43 0 61 56h97q-6 -64 -43.5 -102.5t-114.5 -38.5q-76 0 -111 37.5zM177 902q0 40 16 75.5t45.5 56.5t68.5 21q25 0 46 -9.5
t47 -27.5q20 -14 35 -21t30 -7q38 0 38 63h81q0 -47 -17.5 -81.5t-46 -52.5t-60.5 -18q-39 0 -63 11t-52 31q-15 12 -24.5 17.5t-21.5 5.5q-23 0 -33 -19.5t-10 -44.5h-79z" />
    <glyph glyph-name="uni01CD" unicode="&#x1cd;" horiz-adv-x="712" 
d="M497 0l-37 117h-229l-36 -117h-185l246 667h222l224 -667h-205zM275 257h140l-71 221zM277 699l-80 122h112l42 -54l42 54h112l-70 -122h-158z" />
    <glyph glyph-name="Acircumflex" unicode="&#xc2;" horiz-adv-x="712" 
d="M497 0l-37 117h-229l-36 -117h-185l246 667h222l224 -667h-205zM275 257h140l-71 221zM192 706l90 122h148l90 -122h-122l-42 54l-42 -54h-122z" />
    <glyph glyph-name="uni1EA4" unicode="&#x1ea4;" horiz-adv-x="712" 
d="M497 0l-37 117h-229l-36 -117h-185l246 667h222l224 -667h-205zM275 257h140l-71 221zM193 702l90 122h148l90 -122h-122l-42 54l-42 -54h-122zM491 776l28 112h191l-133 -112h-86z" />
    <glyph glyph-name="uni1EAC" unicode="&#x1eac;" horiz-adv-x="712" 
d="M497 0l-37 117h-229l-36 -117h-185l246 667h222l224 -667h-205zM275 257h140l-71 221zM296 -159v109h120v-109h-120zM192 706l90 122h148l90 -122h-122l-42 54l-42 -54h-122z" />
    <glyph glyph-name="uni1EA6" unicode="&#x1ea6;" horiz-adv-x="712" 
d="M497 0l-37 117h-229l-36 -117h-185l246 667h222l224 -667h-205zM275 257h140l-71 221zM202 702l90 122h148l90 -122h-122l-42 54l-42 -54h-122zM124 776l-103 110h157l42 -110h-96z" />
    <glyph glyph-name="uni1EA8" unicode="&#x1ea8;" horiz-adv-x="712" 
d="M497 0l-37 117h-229l-36 -117h-185l246 667h222l224 -667h-205zM275 257h140l-71 221zM182 711l90 122h148l90 -122h-122l-42 54l-42 -54h-122zM479 836q15 0 25.5 7t10.5 17q0 23 -40 23q-14 0 -31 -4v65q23 5 70 5q55 0 88 -20t33 -62q0 -31 -16 -49t-43 -18v-23h-97
v59z" />
    <glyph glyph-name="uni1EAA" unicode="&#x1eaa;" horiz-adv-x="712" 
d="M497 0l-37 117h-229l-36 -117h-185l246 667h222l224 -667h-205zM275 257h140l-71 221zM202 694l90 122h148l90 -122h-122l-42 54l-42 -54h-122zM162 862q0 40 16 75.5t45.5 56.5t68.5 21q25 0 46 -9.5t47 -27.5q20 -14 35 -21t30 -7q38 0 38 63h81q0 -47 -17.5 -81.5
t-46 -52.5t-60.5 -18q-39 0 -63 11t-52 31q-15 12 -24.5 17.5t-21.5 5.5q-23 0 -33 -19.5t-10 -44.5h-79z" />
    <glyph glyph-name="uni0200" unicode="&#x200;" horiz-adv-x="712" 
d="M497 0l-37 117h-229l-36 -117h-185l246 667h222l224 -667h-205zM275 257h140l-71 221zM226 714l-103 110h157l42 -110h-96zM418 715l-103 110h157l42 -110h-96z" />
    <glyph glyph-name="Adieresis" unicode="&#xc4;" horiz-adv-x="712" 
d="M497 0l-37 117h-229l-36 -117h-185l246 667h222l224 -667h-205zM275 257h140l-71 221zM177 694v109h150v-109h-150zM376 694v109h150v-109h-150z" />
    <glyph glyph-name="uni0226" unicode="&#x226;" horiz-adv-x="712" 
d="M497 0l-37 117h-229l-36 -117h-185l246 667h222l224 -667h-205zM275 257h140l-71 221zM272 694v109h140v-109h-140z" />
    <glyph glyph-name="uni1EA0" unicode="&#x1ea0;" horiz-adv-x="712" 
d="M497 0l-37 117h-229l-36 -117h-185l246 667h222l224 -667h-205zM275 257h140l-71 221zM296 -159v109h120v-109h-120z" />
    <glyph glyph-name="Agrave" unicode="&#xc0;" horiz-adv-x="712" 
d="M497 0l-37 117h-229l-36 -117h-185l246 667h222l224 -667h-205zM275 257h140l-71 221zM313 714l-103 110h157l42 -110h-96z" />
    <glyph glyph-name="uni1EA2" unicode="&#x1ea2;" horiz-adv-x="712" 
d="M497 0l-37 117h-229l-36 -117h-185l246 667h222l224 -667h-205zM275 257h140l-71 221zM298 764q15 0 25.5 7t10.5 17q0 23 -40 23q-14 0 -31 -4v65q23 5 70 5q55 0 88 -20t33 -62q0 -31 -16 -49t-43 -18v-23h-97v59z" />
    <glyph glyph-name="uni0202" unicode="&#x202;" horiz-adv-x="712" 
d="M497 0l-37 117h-229l-36 -117h-185l246 667h222l224 -667h-205zM275 257h140l-71 221zM470.5 811.5q37.5 -38.5 43.5 -102.5h-97q-18 56 -61 56q-24 0 -39 -17t-22 -39h-96q11 66 46 103.5t111 37.5q77 0 114.5 -38.5z" />
    <glyph glyph-name="Amacron" unicode="&#x100;" horiz-adv-x="712" 
d="M497 0l-37 117h-229l-36 -117h-185l246 667h222l224 -667h-205zM275 257h140l-71 221zM203 710v112h294v-112h-294z" />
    <glyph glyph-name="Aogonek" unicode="&#x104;" horiz-adv-x="712" 
d="M706 -73v-95q-24 -12 -46 -19t-59 -7q-74 0 -108.5 24.5t-34.5 76.5t70 93h-31l-37 117h-229l-36 -117h-185l246 667h222l224 -667h-2q-99 -38 -99 -74q0 -21 9 -28.5t26 -7.5q29 0 70 37zM275 257h140l-71 221z" />
    <glyph glyph-name="Aring" unicode="&#xc5;" horiz-adv-x="712" 
d="M497 0l-37 117h-229l-36 -117h-185l246 667h222l224 -667h-205zM275 257h140l-71 221zM260.5 701q-33.5 25 -33.5 71q0 45 34 70.5t93 25.5q60 0 93.5 -25.5t33.5 -70.5q0 -46 -33.5 -71t-93.5 -25t-93.5 25zM389 747.5q10 6.5 10 24.5q0 17 -10.5 24t-34.5 7t-34.5 -7
t-10.5 -24q0 -18 10 -24.5t35 -6.5t35 6.5z" />
    <glyph glyph-name="Aringacute" unicode="&#x1fa;" horiz-adv-x="712" 
d="M497 0l-37 117h-229l-36 -117h-185l246 667h222l224 -667h-205zM275 257h140l-71 221zM260.5 701q-33.5 25 -33.5 71q0 45 34 70.5t93 25.5q60 0 93.5 -25.5t33.5 -70.5q0 -46 -33.5 -71t-93.5 -25t-93.5 25zM389 747.5q10 6.5 10 24.5q0 17 -10.5 24t-34.5 7t-34.5 -7
t-10.5 -24q0 -18 10 -24.5t35 -6.5t35 6.5zM308 902l28 112h191l-133 -112h-86z" />
    <glyph glyph-name="Atilde" unicode="&#xc3;" horiz-adv-x="712" 
d="M497 0l-37 117h-229l-36 -117h-185l246 667h222l224 -667h-205zM275 257h140l-71 221zM162 716q0 40 16 75.5t45.5 56.5t68.5 21q25 0 46 -9.5t47 -27.5q20 -14 35 -21t30 -7q38 0 38 63h81q0 -47 -17.5 -81.5t-46 -52.5t-60.5 -18q-39 0 -63 11t-52 31
q-15 12 -24.5 17.5t-21.5 5.5q-23 0 -33 -19.5t-10 -44.5h-79z" />
    <glyph glyph-name="AE" unicode="&#xc6;" horiz-adv-x="1059" 
d="M999 517h-265v-103h226v-151h-226v-112h265v-151h-465v120h-225l-76 -120h-223l469 667h520v-150zM395 256h139v219z" />
    <glyph glyph-name="AEacute" unicode="&#x1fc;" horiz-adv-x="1059" 
d="M999 517h-265v-103h226v-151h-226v-112h265v-151h-465v120h-225l-76 -120h-223l469 667h520v-150zM395 256h139v219zM695 714l28 112h191l-133 -112h-86z" />
    <glyph glyph-name="B" unicode="B" horiz-adv-x="689" 
d="M625 300q29 -39 29 -93q0 -68 -34.5 -115t-91 -69.5t-124.5 -22.5h-339v667h309q248 0 248 -187q0 -41 -22 -71.5t-58 -51.5q54 -18 83 -57zM265 416h115q15 0 26.5 14t11.5 33q0 27 -14 40.5t-34 13.5h-105v-101zM429 166q18 17 18 48q0 30 -18 46t-47 16h-116v-126h119
q26 -1 44 16z" />
    <glyph glyph-name="C" unicode="C" horiz-adv-x="633" 
d="M115.5 70q-85.5 85 -85.5 263q0 175 83 263t254 88q102 0 216 -49v-171q-100 70 -188 70q-77 0 -117.5 -45t-40.5 -157q0 -110 41.5 -153.5t126.5 -43.5q34 0 80 16.5t98 51.5v-171q-38 -21 -100 -34t-116 -13q-166 0 -251.5 85z" />
    <glyph glyph-name="Cacute" unicode="&#x106;" horiz-adv-x="633" 
d="M115.5 70q-85.5 85 -85.5 263q0 175 83 263t254 88q102 0 216 -49v-171q-100 70 -188 70q-77 0 -117.5 -45t-40.5 -157q0 -110 41.5 -153.5t126.5 -43.5q34 0 80 16.5t98 51.5v-171q-38 -21 -100 -34t-116 -13q-166 0 -251.5 85zM307 744l28 112h191l-133 -112h-86z" />
    <glyph glyph-name="Ccaron" unicode="&#x10c;" horiz-adv-x="633" 
d="M115.5 70q-85.5 85 -85.5 263q0 175 83 263t254 88q102 0 216 -49v-171q-100 70 -188 70q-77 0 -117.5 -45t-40.5 -157q0 -110 41.5 -153.5t126.5 -43.5q34 0 80 16.5t98 51.5v-171q-38 -21 -100 -34t-116 -13q-166 0 -251.5 85zM276 729l-80 122h112l42 -54l42 54h112
l-70 -122h-158z" />
    <glyph glyph-name="Ccedilla" unicode="&#xc7;" horiz-adv-x="633" 
d="M277.5 489q-40.5 -45 -40.5 -157q0 -110 41.5 -153.5t126.5 -43.5q34 0 80 16.5t98 51.5v-171q-30 -16 -75.5 -27.5t-92.5 -16.5l-40 -115h-159l81 116q-267 34 -267 344q0 175 83 263t254 88q102 0 216 -49v-171q-100 70 -188 70q-77 0 -117.5 -45z" />
    <glyph glyph-name="Ccircumflex" unicode="&#x108;" horiz-adv-x="633" 
d="M115.5 70q-85.5 85 -85.5 263q0 175 83 263t254 88q102 0 216 -49v-171q-100 70 -188 70q-77 0 -117.5 -45t-40.5 -157q0 -110 41.5 -153.5t126.5 -43.5q34 0 80 16.5t98 51.5v-171q-38 -21 -100 -34t-116 -13q-166 0 -251.5 85zM191 736l90 122h148l90 -122h-122l-42 54
l-42 -54h-122z" />
    <glyph glyph-name="Cdotaccent" unicode="&#x10a;" horiz-adv-x="633" 
d="M115.5 70q-85.5 85 -85.5 263q0 175 83 263t254 88q102 0 216 -49v-171q-100 70 -188 70q-77 0 -117.5 -45t-40.5 -157q0 -110 41.5 -153.5t126.5 -43.5q34 0 80 16.5t98 51.5v-171q-38 -21 -100 -34t-116 -13q-166 0 -251.5 85zM271 724v109h140v-109h-140z" />
    <glyph glyph-name="D" unicode="D" horiz-adv-x="730" 
d="M65 667h293q174 0 255.5 -83.5t81.5 -250.5q0 -166 -82 -249.5t-255 -83.5h-293v667zM333 150q76 0 116.5 45t40.5 138q0 184 -157 184h-68v-367h68z" />
    <glyph glyph-name="uni01C4" unicode="&#x1c4;" horiz-adv-x="1374" 
d="M65 667h293q174 0 255.5 -83.5t81.5 -250.5q0 -166 -82 -249.5t-255 -83.5h-293v667zM333 150q76 0 116.5 45t40.5 138q0 184 -157 184h-68v-367h68zM1324 667v-139l-292 -377h292v-151h-544v142l301 372h-298v153h541zM983 699l-80 122h112l42 -54l42 54h112l-70 -122
h-158z" />
    <glyph glyph-name="Eth" unicode="&#xd0;" horiz-adv-x="730" 
d="M613.5 583.5q81.5 -83.5 81.5 -250.5q0 -166 -82 -249.5t-255 -83.5h-293v280h-60v108h60v279h293q174 0 255.5 -83.5zM449.5 195q40.5 45 40.5 138q0 184 -157 184h-68v-129h64v-108h-64v-130h68q76 0 116.5 45z" />
    <glyph glyph-name="Dcaron" unicode="&#x10e;" horiz-adv-x="730" 
d="M65 667h293q174 0 255.5 -83.5t81.5 -250.5q0 -166 -82 -249.5t-255 -83.5h-293v667zM333 150q76 0 116.5 45t40.5 138q0 184 -157 184h-68v-367h68zM251 699l-80 122h112l42 -54l42 54h112l-70 -122h-158z" />
    <glyph glyph-name="Dcroat" unicode="&#x110;" horiz-adv-x="730" 
d="M613.5 583.5q81.5 -83.5 81.5 -250.5q0 -166 -82 -249.5t-255 -83.5h-293v280h-60v108h60v279h293q174 0 255.5 -83.5zM449.5 195q40.5 45 40.5 138q0 184 -157 184h-68v-129h64v-108h-64v-130h68q76 0 116.5 45z" />
    <glyph glyph-name="uni01F2" unicode="&#x1f2;" horiz-adv-x="1238" 
d="M65 667h293q174 0 255.5 -83.5t81.5 -250.5q0 -166 -82 -249.5t-255 -83.5h-293v667zM333 150q76 0 116.5 45t40.5 138q0 184 -157 184h-68v-367h68zM1193 509v-139l-193 -227h193v-143h-418v141l227 235h-222v133h413z" />
    <glyph glyph-name="uni01C5" unicode="&#x1c5;" horiz-adv-x="1238" 
d="M65 667h293q174 0 255.5 -83.5t81.5 -250.5q0 -166 -82 -249.5t-255 -83.5h-293v667zM333 150q76 0 116.5 45t40.5 138q0 184 -157 184h-68v-367h68zM1193 509v-139l-193 -227h193v-143h-418v141l227 235h-222v133h413zM915 564l-80 122h112l42 -54l42 54h112l-70 -122
h-158z" />
    <glyph glyph-name="E" unicode="E" horiz-adv-x="598" 
d="M65 0v667h473v-150h-272v-108h233v-150h-234v-109h273v-150h-473z" />
    <glyph glyph-name="Eacute" unicode="&#xc9;" horiz-adv-x="598" 
d="M65 0v667h473v-150h-272v-108h233v-150h-234v-109h273v-150h-473zM254 714l28 112h191l-133 -112h-86z" />
    <glyph glyph-name="Ebreve" unicode="&#x114;" horiz-adv-x="598" 
d="M65 0v667h473v-150h-272v-108h233v-150h-234v-109h273v-150h-473zM191 740.5q-35 37.5 -46 103.5h96q7 -22 22 -39t39 -17q43 0 61 56h97q-6 -64 -43.5 -102.5t-114.5 -38.5q-76 0 -111 37.5z" />
    <glyph glyph-name="Ecaron" unicode="&#x11a;" horiz-adv-x="598" 
d="M65 0v667h473v-150h-272v-108h233v-150h-234v-109h273v-150h-473zM223 699l-80 122h112l42 -54l42 54h112l-70 -122h-158z" />
    <glyph glyph-name="uni1E1C" unicode="&#x1e1c;" horiz-adv-x="598" 
d="M191 740.5q-35 37.5 -46 103.5h96q7 -22 22 -39t39 -17q43 0 61 56h97q-6 -64 -43.5 -102.5t-114.5 -38.5q-76 0 -111 37.5zM538 517h-272v-108h233v-150h-234v-109h273v-150h-182l-45 -127h-159l88 127h-175v667h473v-150z" />
    <glyph glyph-name="Ecircumflex" unicode="&#xca;" horiz-adv-x="598" 
d="M65 0v667h473v-150h-272v-108h233v-150h-234v-109h273v-150h-473zM138 706l90 122h148l90 -122h-122l-42 54l-42 -54h-122z" />
    <glyph glyph-name="uni1EBE" unicode="&#x1ebe;" horiz-adv-x="598" 
d="M65 0v667h473v-150h-272v-108h233v-150h-234v-109h273v-150h-473zM139 702l90 122h148l90 -122h-122l-42 54l-42 -54h-122zM437 776l28 112h191l-133 -112h-86z" />
    <glyph glyph-name="uni1EC6" unicode="&#x1ec6;" horiz-adv-x="598" 
d="M65 0v667h473v-150h-272v-108h233v-150h-234v-109h273v-150h-473zM242 -159v109h120v-109h-120zM138 706l90 122h148l90 -122h-122l-42 54l-42 -54h-122z" />
    <glyph glyph-name="uni1EC0" unicode="&#x1ec0;" horiz-adv-x="598" 
d="M65 0v667h473v-150h-272v-108h233v-150h-234v-109h273v-150h-473zM148 702l90 122h148l90 -122h-122l-42 54l-42 -54h-122zM70 776l-103 110h157l42 -110h-96z" />
    <glyph glyph-name="uni1EC2" unicode="&#x1ec2;" horiz-adv-x="598" 
d="M65 0v667h473v-150h-272v-108h233v-150h-234v-109h273v-150h-473zM128 711l90 122h148l90 -122h-122l-42 54l-42 -54h-122zM425 836q15 0 25.5 7t10.5 17q0 23 -40 23q-14 0 -31 -4v65q23 5 70 5q55 0 88 -20t33 -62q0 -31 -16 -49t-43 -18v-23h-97v59z" />
    <glyph glyph-name="uni1EC4" unicode="&#x1ec4;" horiz-adv-x="598" 
d="M65 0v667h473v-150h-272v-108h233v-150h-234v-109h273v-150h-473zM148 694l90 122h148l90 -122h-122l-42 54l-42 -54h-122zM108 862q0 40 16 75.5t45.5 56.5t68.5 21q25 0 46 -9.5t47 -27.5q20 -14 35 -21t30 -7q38 0 38 63h81q0 -47 -17.5 -81.5t-46 -52.5t-60.5 -18
q-39 0 -63 11t-52 31q-15 12 -24.5 17.5t-21.5 5.5q-23 0 -33 -19.5t-10 -44.5h-79z" />
    <glyph glyph-name="uni0204" unicode="&#x204;" horiz-adv-x="598" 
d="M65 0v667h473v-150h-272v-108h233v-150h-234v-109h273v-150h-473zM172 714l-103 110h157l42 -110h-96zM364 715l-103 110h157l42 -110h-96z" />
    <glyph glyph-name="Edieresis" unicode="&#xcb;" horiz-adv-x="598" 
d="M65 0v667h473v-150h-272v-108h233v-150h-234v-109h273v-150h-473zM123 694v109h150v-109h-150zM322 694v109h150v-109h-150z" />
    <glyph glyph-name="Edotaccent" unicode="&#x116;" horiz-adv-x="598" 
d="M65 0v667h473v-150h-272v-108h233v-150h-234v-109h273v-150h-473zM218 694v109h140v-109h-140z" />
    <glyph glyph-name="uni1EB8" unicode="&#x1eb8;" horiz-adv-x="598" 
d="M65 0v667h473v-150h-272v-108h233v-150h-234v-109h273v-150h-473zM242 -159v109h120v-109h-120z" />
    <glyph glyph-name="Egrave" unicode="&#xc8;" horiz-adv-x="598" 
d="M65 0v667h473v-150h-272v-108h233v-150h-234v-109h273v-150h-473zM259 714l-103 110h157l42 -110h-96z" />
    <glyph glyph-name="uni1EBA" unicode="&#x1eba;" horiz-adv-x="598" 
d="M65 0v667h473v-150h-272v-108h233v-150h-234v-109h273v-150h-473zM244 764q15 0 25.5 7t10.5 17q0 23 -40 23q-14 0 -31 -4v65q23 5 70 5q55 0 88 -20t33 -62q0 -31 -16 -49t-43 -18v-23h-97v59z" />
    <glyph glyph-name="uni0206" unicode="&#x206;" horiz-adv-x="598" 
d="M65 0v667h473v-150h-272v-108h233v-150h-234v-109h273v-150h-473zM416.5 811.5q37.5 -38.5 43.5 -102.5h-97q-18 56 -61 56q-24 0 -39 -17t-22 -39h-96q11 66 46 103.5t111 37.5q77 0 114.5 -38.5z" />
    <glyph glyph-name="Emacron" unicode="&#x112;" horiz-adv-x="598" 
d="M65 0v667h473v-150h-272v-108h233v-150h-234v-109h273v-150h-473zM149 710v112h294v-112h-294z" />
    <glyph glyph-name="uni1E16" unicode="&#x1e16;" horiz-adv-x="598" 
d="M65 0v667h473v-150h-272v-108h233v-150h-234v-109h273v-150h-473zM149 710v112h294v-112h-294zM254 859l28 112h191l-133 -112h-86z" />
    <glyph glyph-name="uni1E14" unicode="&#x1e14;" horiz-adv-x="598" 
d="M65 0v667h473v-150h-272v-108h233v-150h-234v-109h273v-150h-473zM149 710v112h294v-112h-294zM259 859l-103 110h157l42 -110h-96z" />
    <glyph glyph-name="Eogonek" unicode="&#x118;" horiz-adv-x="598" 
d="M266 517v-108h233v-150h-234v-109h273v-150h-15q-99 -38 -99 -74q0 -21 9 -28.5t26 -7.5q29 0 70 37v-95q-24 -12 -46 -19t-59 -7q-74 0 -108.5 24.5t-34.5 76.5t70 93h-286v667h473v-150h-272z" />
    <glyph glyph-name="uni1EBC" unicode="&#x1ebc;" horiz-adv-x="598" 
d="M65 0v667h473v-150h-272v-108h233v-150h-234v-109h273v-150h-473zM108 716q0 40 16 75.5t45.5 56.5t68.5 21q25 0 46 -9.5t47 -27.5q20 -14 35 -21t30 -7q38 0 38 63h81q0 -47 -17.5 -81.5t-46 -52.5t-60.5 -18q-39 0 -63 11t-52 31q-15 12 -24.5 17.5t-21.5 5.5
q-23 0 -33 -19.5t-10 -44.5h-79z" />
    <glyph glyph-name="F" unicode="F" horiz-adv-x="583" 
d="M65 0v667h473v-150h-273v-128h234v-151h-234v-238h-200z" />
    <glyph glyph-name="uni1E1E" unicode="&#x1e1e;" horiz-adv-x="580" 
d="M65 0v667h473v-150h-273v-128h234v-151h-234v-238h-200zM173 689v109h140v-109h-140z" />
    <glyph glyph-name="G" unicode="G" horiz-adv-x="714" 
d="M123.5 67.5q-88.5 82.5 -88.5 265.5q0 179 89.5 265t242.5 86q125 0 251 -50v-178q-74 40 -123.5 58.5t-101.5 18.5q-75 0 -114 -43.5t-39 -155.5q0 -108 39 -154t103 -46q48 0 67 13v87h-89v150h289v-319q-66 -39 -137.5 -59.5t-143.5 -20.5q-156 0 -244.5 82.5z" />
    <glyph glyph-name="uni01F4" unicode="&#x1f4;" horiz-adv-x="714" 
d="M123.5 67.5q-88.5 82.5 -88.5 265.5q0 179 89.5 265t242.5 86q125 0 251 -50v-178q-74 40 -123.5 58.5t-101.5 18.5q-75 0 -114 -43.5t-39 -155.5q0 -108 39 -154t103 -46q48 0 67 13v87h-89v150h289v-319q-66 -39 -137.5 -59.5t-143.5 -20.5q-156 0 -244.5 82.5z
M326 734l28 112h191l-133 -112h-86z" />
    <glyph glyph-name="Gbreve" unicode="&#x11e;" horiz-adv-x="714" 
d="M123.5 67.5q-88.5 82.5 -88.5 265.5q0 179 89.5 265t242.5 86q125 0 251 -50v-178q-74 40 -123.5 58.5t-101.5 18.5q-75 0 -114 -43.5t-39 -155.5q0 -108 39 -154t103 -46q48 0 67 13v87h-89v150h289v-319q-66 -39 -137.5 -59.5t-143.5 -20.5q-156 0 -244.5 82.5z
M263 760.5q-35 37.5 -46 103.5h96q7 -22 22 -39t39 -17q43 0 61 56h97q-6 -64 -43.5 -102.5t-114.5 -38.5q-76 0 -111 37.5z" />
    <glyph glyph-name="Gcaron" unicode="&#x1e6;" horiz-adv-x="714" 
d="M123.5 67.5q-88.5 82.5 -88.5 265.5q0 179 89.5 265t242.5 86q125 0 251 -50v-178q-74 40 -123.5 58.5t-101.5 18.5q-75 0 -114 -43.5t-39 -155.5q0 -108 39 -154t103 -46q48 0 67 13v87h-89v150h289v-319q-66 -39 -137.5 -59.5t-143.5 -20.5q-156 0 -244.5 82.5z
M295 719l-80 122h112l42 -54l42 54h112l-70 -122h-158z" />
    <glyph glyph-name="Gcircumflex" unicode="&#x11c;" horiz-adv-x="714" 
d="M123.5 67.5q-88.5 82.5 -88.5 265.5q0 179 89.5 265t242.5 86q125 0 251 -50v-178q-74 40 -123.5 58.5t-101.5 18.5q-75 0 -114 -43.5t-39 -155.5q0 -108 39 -154t103 -46q48 0 67 13v87h-89v150h289v-319q-66 -39 -137.5 -59.5t-143.5 -20.5q-156 0 -244.5 82.5z
M210 726l90 122h148l90 -122h-122l-42 54l-42 -54h-122z" />
    <glyph glyph-name="Gcommaaccent" unicode="&#x122;" horiz-adv-x="714" 
d="M123.5 67.5q-88.5 82.5 -88.5 265.5q0 179 89.5 265t242.5 86q125 0 251 -50v-178q-74 40 -123.5 58.5t-101.5 18.5q-75 0 -114 -43.5t-39 -155.5q0 -108 39 -154t103 -46q48 0 67 13v87h-89v150h289v-319q-66 -39 -137.5 -59.5t-143.5 -20.5q-156 0 -244.5 82.5z
M295 -119q22 4 30.5 19t7.5 50h135q2 -63 -43.5 -103.5t-129.5 -40.5v75z" />
    <glyph glyph-name="Gdotaccent" unicode="&#x120;" horiz-adv-x="714" 
d="M123.5 67.5q-88.5 82.5 -88.5 265.5q0 179 89.5 265t242.5 86q125 0 251 -50v-178q-74 40 -123.5 58.5t-101.5 18.5q-75 0 -114 -43.5t-39 -155.5q0 -108 39 -154t103 -46q48 0 67 13v87h-89v150h289v-319q-66 -39 -137.5 -59.5t-143.5 -20.5q-156 0 -244.5 82.5z
M290 714v109h140v-109h-140z" />
    <glyph glyph-name="uni1E20" unicode="&#x1e20;" horiz-adv-x="714" 
d="M123.5 67.5q-88.5 82.5 -88.5 265.5q0 179 89.5 265t242.5 86q125 0 251 -50v-178q-74 40 -123.5 58.5t-101.5 18.5q-75 0 -114 -43.5t-39 -155.5q0 -108 39 -154t103 -46q48 0 67 13v87h-89v150h289v-319q-66 -39 -137.5 -59.5t-143.5 -20.5q-156 0 -244.5 82.5z
M221 730v112h294v-112h-294z" />
    <glyph glyph-name="H" unicode="H" horiz-adv-x="728" 
d="M65 0v667h200v-257h198v257h200v-667h-200v250h-198v-250h-200z" />
    <glyph glyph-name="Hbar" unicode="&#x126;" horiz-adv-x="728" 
d="M703 579v-88h-40v-491h-200v250h-198v-250h-200v491h-40v88h40v88h200v-88h198v88h200v-88h40zM463 410v81h-198v-81h198z" />
    <glyph glyph-name="uni1E2A" unicode="&#x1e2a;" horiz-adv-x="728" 
d="M65 0v667h200v-257h198v257h200v-667h-200v250h-198v-250h-200zM253 -151.5q-35 37.5 -46 103.5h96q7 -22 22 -39t39 -17q43 0 61 56h97q-6 -64 -43.5 -102.5t-114.5 -38.5q-76 0 -111 37.5z" />
    <glyph glyph-name="Hcircumflex" unicode="&#x124;" horiz-adv-x="728" 
d="M65 0v667h200v-257h198v257h200v-667h-200v250h-198v-250h-200zM200 706l90 122h148l90 -122h-122l-42 54l-42 -54h-122z" />
    <glyph glyph-name="I" unicode="I" horiz-adv-x="331" 
d="M65 0v667h201v-667h-201z" />
    <glyph glyph-name="IJ" unicode="&#x132;" horiz-adv-x="820" 
d="M65 0v667h201v-667h-201zM361 23v179q51 -36 72.5 -49t43.5 -13q34 0 55.5 18t21.5 54v455h201v-463q0 -114 -65 -166.5t-161 -52.5q-79 0 -168 38z" />
    <glyph glyph-name="Iacute" unicode="&#xcd;" horiz-adv-x="331" 
d="M65 0v667h201v-667h-201zM125 714l28 112h191l-133 -112h-86z" />
    <glyph glyph-name="Ibreve" unicode="&#x12c;" horiz-adv-x="331" 
d="M65 0v667h201v-667h-201zM62 740.5q-35 37.5 -46 103.5h96q7 -22 22 -39t39 -17q43 0 61 56h97q-6 -64 -43.5 -102.5t-114.5 -38.5q-76 0 -111 37.5z" />
    <glyph glyph-name="uni01CF" unicode="&#x1cf;" horiz-adv-x="331" 
d="M65 0v667h201v-667h-201zM94 699l-80 122h112l42 -54l42 54h112l-70 -122h-158z" />
    <glyph glyph-name="Icircumflex" unicode="&#xce;" horiz-adv-x="331" 
d="M65 0v667h201v-667h-201zM9 706l90 122h148l90 -122h-122l-42 54l-42 -54h-122z" />
    <glyph glyph-name="uni0208" unicode="&#x208;" horiz-adv-x="331" 
d="M65 0v667h201v-667h-201zM43 714l-103 110h157l42 -110h-96zM235 715l-103 110h157l42 -110h-96z" />
    <glyph glyph-name="Idieresis" unicode="&#xcf;" horiz-adv-x="331" 
d="M65 0v667h201v-667h-201zM-6 694v109h150v-109h-150zM193 694v109h150v-109h-150z" />
    <glyph glyph-name="uni1E2E" unicode="&#x1e2e;" horiz-adv-x="331" 
d="M65 0v667h201v-667h-201zM-6 694v109h150v-109h-150zM193 694v109h150v-109h-150zM125 850l28 112h191l-133 -112h-86z" />
    <glyph glyph-name="Idotaccent" unicode="&#x130;" horiz-adv-x="331" 
d="M65 0v667h201v-667h-201zM89 694v109h140v-109h-140z" />
    <glyph glyph-name="uni1ECA" unicode="&#x1eca;" horiz-adv-x="331" 
d="M65 0v667h201v-667h-201zM96 -159v109h120v-109h-120z" />
    <glyph glyph-name="Igrave" unicode="&#xcc;" horiz-adv-x="331" 
d="M65 0v667h201v-667h-201zM130 714l-103 110h157l42 -110h-96z" />
    <glyph glyph-name="uni1EC8" unicode="&#x1ec8;" horiz-adv-x="331" 
d="M65 0v667h201v-667h-201zM115 764q15 0 25.5 7t10.5 17q0 23 -40 23q-14 0 -31 -4v65q23 5 70 5q55 0 88 -20t33 -62q0 -31 -16 -49t-43 -18v-23h-97v59z" />
    <glyph glyph-name="uni020A" unicode="&#x20a;" horiz-adv-x="331" 
d="M65 0v667h201v-667h-201zM287.5 811.5q37.5 -38.5 43.5 -102.5h-97q-18 56 -61 56q-24 0 -39 -17t-22 -39h-96q11 66 46 103.5t111 37.5q77 0 114.5 -38.5z" />
    <glyph glyph-name="Imacron" unicode="&#x12a;" horiz-adv-x="331" 
d="M65 0v667h201v-667h-201zM20 710v112h294v-112h-294z" />
    <glyph glyph-name="Iogonek" unicode="&#x12e;" horiz-adv-x="331" 
d="M267 -73v-95q-24 -12 -46 -19t-59 -7q-74 0 -108.5 24.5t-34.5 76.5t70 93h-24v667h201v-667h-5q-99 -38 -99 -74q0 -21 9 -28.5t26 -7.5q29 0 70 37z" />
    <glyph glyph-name="Itilde" unicode="&#x128;" horiz-adv-x="331" 
d="M65 0v667h201v-667h-201zM-21 716q0 40 16 75.5t45.5 56.5t68.5 21q25 0 46 -9.5t47 -27.5q20 -14 35 -21t30 -7q38 0 38 63h81q0 -47 -17.5 -81.5t-46 -52.5t-60.5 -18q-39 0 -63 11t-52 31q-15 12 -24.5 17.5t-21.5 5.5q-23 0 -33 -19.5t-10 -44.5h-79z" />
    <glyph glyph-name="J" unicode="J" horiz-adv-x="489" 
d="M30 23v179q51 -36 72.5 -49t43.5 -13q34 0 55.5 18t21.5 54v455h201v-463q0 -114 -65 -166.5t-161 -52.5q-79 0 -168 38z" />
    <glyph glyph-name="Jcircumflex" unicode="&#x134;" horiz-adv-x="489" 
d="M30 23v179q51 -36 72.5 -49t43.5 -13q34 0 55.5 18t21.5 54v455h201v-463q0 -114 -65 -166.5t-161 -52.5q-79 0 -168 38zM161 706l90 122h148l90 -122h-122l-42 54l-42 -54h-122z" />
    <glyph glyph-name="K" unicode="K" horiz-adv-x="708" 
d="M446 0l-147 241l-33 -38v-203h-201v667h201v-236l156 236h252l-236 -269l255 -398h-247z" />
    <glyph glyph-name="Kcommaaccent" unicode="&#x136;" horiz-adv-x="708" 
d="M446 0l-147 241l-33 -38v-203h-201v667h201v-236l156 236h252l-236 -269l255 -398h-247zM247 -119q22 4 30.5 19t7.5 50h135q2 -63 -43.5 -103.5t-129.5 -40.5v75z" />
    <glyph glyph-name="L" unicode="L" horiz-adv-x="568" 
d="M65 0v667h201v-516h267v-151h-468z" />
    <glyph glyph-name="uni01C7" unicode="&#x1c7;" horiz-adv-x="1057" 
d="M65 0v667h201v-516h267v-151h-468zM598 23v179q51 -36 72.5 -49t43.5 -13q34 0 55.5 18t21.5 54v455h201v-463q0 -114 -65 -166.5t-161 -52.5q-79 0 -168 38z" />
    <glyph glyph-name="Lacute" unicode="&#x139;" horiz-adv-x="568" 
d="M65 0v667h201v-516h267v-151h-468zM126 714l28 112h191l-133 -112h-86z" />
    <glyph glyph-name="Lcaron" unicode="&#x13d;" horiz-adv-x="568" 
d="M65 0v667h201v-516h267v-151h-468zM348 599q22 4 30.5 19t7.5 50h135q2 -63 -43.5 -103.5t-129.5 -40.5v75z" />
    <glyph glyph-name="Lcommaaccent" unicode="&#x13b;" horiz-adv-x="568" 
d="M65 0v667h201v-516h267v-151h-468zM187 -119q22 4 30.5 19t7.5 50h135q2 -63 -43.5 -103.5t-129.5 -40.5v75z" />
    <glyph glyph-name="Ldot" unicode="&#x13f;" horiz-adv-x="568" 
d="M65 0v667h201v-516h267v-151h-468zM373 263v138h144v-138h-144z" />
    <glyph glyph-name="uni1E36" unicode="&#x1e36;" horiz-adv-x="568" 
d="M65 0v667h201v-516h267v-151h-468zM224 -159v109h120v-109h-120z" />
    <glyph glyph-name="uni01C8" unicode="&#x1c8;" horiz-adv-x="887" 
d="M65 0v667h201v-516h267v-151h-468zM641 579v131h186v-131h-186zM573 -49q12 -2 19 -2q23 0 37 14.5t14 41.5v504h182l2 -502q0 -111 -68.5 -155.5t-185.5 -44.5v144z" />
    <glyph glyph-name="uni1E3A" unicode="&#x1e3a;" horiz-adv-x="568" 
d="M65 0v667h201v-516h267v-151h-468zM131 -155v112h294v-112h-294z" />
    <glyph glyph-name="Lslash" unicode="&#x141;" horiz-adv-x="576" 
d="M266 151h267v-151h-468v195l-61 -33v122l61 33v350h201v-239l139 76v-122l-139 -76v-155z" />
    <glyph glyph-name="M" unicode="M" horiz-adv-x="872" 
d="M611 667h196v-667h-200v410l-176 -228l-176 229v-411h-190v667h202l170 -225z" />
    <glyph glyph-name="uni1E42" unicode="&#x1e42;" horiz-adv-x="872" 
d="M611 667h196v-667h-200v410l-176 -228l-176 229v-411h-190v667h202l170 -225zM376 -159v109h120v-109h-120z" />
    <glyph glyph-name="N" unicode="N" horiz-adv-x="725" 
d="M478 667h182v-667h-140l-273 341v-341h-182v667h162l251 -328v328z" />
    <glyph glyph-name="uni01CA" unicode="&#x1ca;" horiz-adv-x="1214" 
d="M478 667h182v-667h-140l-273 341v-341h-182v667h162l251 -328v328zM755 23v179q51 -36 72.5 -49t43.5 -13q34 0 55.5 18t21.5 54v455h201v-463q0 -114 -65 -166.5t-161 -52.5q-79 0 -168 38z" />
    <glyph glyph-name="Nacute" unicode="&#x143;" horiz-adv-x="725" 
d="M478 667h182v-667h-140l-273 341v-341h-182v667h162l251 -328v328zM315 714l28 112h191l-133 -112h-86z" />
    <glyph glyph-name="Ncaron" unicode="&#x147;" horiz-adv-x="725" 
d="M478 667h182v-667h-140l-273 341v-341h-182v667h162l251 -328v328zM284 699l-80 122h112l42 -54l42 54h112l-70 -122h-158z" />
    <glyph glyph-name="Ncommaaccent" unicode="&#x145;" horiz-adv-x="725" 
d="M478 667h182v-667h-140l-273 341v-341h-182v667h162l251 -328v328zM266 -119q22 4 30.5 19t7.5 50h135q2 -63 -43.5 -103.5t-129.5 -40.5v75z" />
    <glyph glyph-name="uni1E46" unicode="&#x1e46;" horiz-adv-x="725" 
d="M478 667h182v-667h-140l-273 341v-341h-182v667h162l251 -328v328zM303 -159v109h120v-109h-120z" />
    <glyph glyph-name="Eng" unicode="&#x14a;" horiz-adv-x="791" 
d="M702 667v-667q-3 -107 -71 -150t-183 -43v124q82 0 82 61v11l-271 394v-397h-172v667h172l271 -400v400h172z" />
    <glyph glyph-name="uni019D" unicode="&#x19d;" horiz-adv-x="735" 
d="M670 667v-667h-140l-273 341v-334q0 -111 -67.5 -155.5t-184.5 -44.5v144q12 -2 19 -2q23 0 37 14.5t14 41.5v662h162l251 -328v328h182z" />
    <glyph glyph-name="uni01CB" unicode="&#x1cb;" horiz-adv-x="1044" 
d="M478 667h182v-667h-140l-273 341v-341h-182v667h162l251 -328v328zM798 579v131h186v-131h-186zM730 -49q12 -2 19 -2q23 0 37 14.5t14 41.5v504h182l2 -502q0 -111 -68.5 -155.5t-185.5 -44.5v144z" />
    <glyph glyph-name="uni1E48" unicode="&#x1e48;" horiz-adv-x="725" 
d="M478 667h182v-667h-140l-273 341v-341h-182v667h162l251 -328v328zM210 -155v112h294v-112h-294z" />
    <glyph glyph-name="Ntilde" unicode="&#xd1;" horiz-adv-x="725" 
d="M478 667h182v-667h-140l-273 341v-341h-182v667h162l251 -328v328zM169 716q0 40 16 75.5t45.5 56.5t68.5 21q25 0 46 -9.5t47 -27.5q20 -14 35 -21t30 -7q38 0 38 63h81q0 -47 -17.5 -81.5t-46 -52.5t-60.5 -18q-39 0 -63 11t-52 31q-15 12 -24.5 17.5t-21.5 5.5
q-23 0 -33 -19.5t-10 -44.5h-79z" />
    <glyph glyph-name="O" unicode="O" horiz-adv-x="744" 
d="M126 72q-91 87 -91 261q0 170 88.5 259.5t248.5 89.5q155 0 246 -87t91 -261q0 -170 -88.5 -259.5t-248.5 -89.5q-155 0 -246 87zM468.5 188.5q33.5 43.5 33.5 146.5q0 102 -33.5 144.5t-96.5 42.5t-96.5 -43.5t-33.5 -146.5q0 -102 33.5 -144.5t96.5 -42.5t96.5 43.5z
" />
    <glyph glyph-name="Oacute" unicode="&#xd3;" horiz-adv-x="744" 
d="M126 72q-91 87 -91 261q0 170 88.5 259.5t248.5 89.5q155 0 246 -87t91 -261q0 -170 -88.5 -259.5t-248.5 -89.5q-155 0 -246 87zM468.5 188.5q33.5 43.5 33.5 146.5q0 102 -33.5 144.5t-96.5 42.5t-96.5 -43.5t-33.5 -146.5q0 -102 33.5 -144.5t96.5 -42.5t96.5 43.5z
M324 744l28 112h191l-133 -112h-86z" />
    <glyph glyph-name="Obreve" unicode="&#x14e;" horiz-adv-x="744" 
d="M126 72q-91 87 -91 261q0 170 88.5 259.5t248.5 89.5q155 0 246 -87t91 -261q0 -170 -88.5 -259.5t-248.5 -89.5q-155 0 -246 87zM468.5 188.5q33.5 43.5 33.5 146.5q0 102 -33.5 144.5t-96.5 42.5t-96.5 -43.5t-33.5 -146.5q0 -102 33.5 -144.5t96.5 -42.5t96.5 43.5z
M261 770.5q-35 37.5 -46 103.5h96q7 -22 22 -39t39 -17q43 0 61 56h97q-6 -64 -43.5 -102.5t-114.5 -38.5q-76 0 -111 37.5z" />
    <glyph glyph-name="uni01D1" unicode="&#x1d1;" horiz-adv-x="744" 
d="M126 72q-91 87 -91 261q0 170 88.5 259.5t248.5 89.5q155 0 246 -87t91 -261q0 -170 -88.5 -259.5t-248.5 -89.5q-155 0 -246 87zM468.5 188.5q33.5 43.5 33.5 146.5q0 102 -33.5 144.5t-96.5 42.5t-96.5 -43.5t-33.5 -146.5q0 -102 33.5 -144.5t96.5 -42.5t96.5 43.5z
M293 729l-80 122h112l42 -54l42 54h112l-70 -122h-158z" />
    <glyph glyph-name="Ocircumflex" unicode="&#xd4;" horiz-adv-x="744" 
d="M126 72q-91 87 -91 261q0 170 88.5 259.5t248.5 89.5q155 0 246 -87t91 -261q0 -170 -88.5 -259.5t-248.5 -89.5q-155 0 -246 87zM468.5 188.5q33.5 43.5 33.5 146.5q0 102 -33.5 144.5t-96.5 42.5t-96.5 -43.5t-33.5 -146.5q0 -102 33.5 -144.5t96.5 -42.5t96.5 43.5z
M208 736l90 122h148l90 -122h-122l-42 54l-42 -54h-122z" />
    <glyph glyph-name="uni1ED0" unicode="&#x1ed0;" horiz-adv-x="744" 
d="M126 72q-91 87 -91 261q0 170 88.5 259.5t248.5 89.5q155 0 246 -87t91 -261q0 -170 -88.5 -259.5t-248.5 -89.5q-155 0 -246 87zM468.5 188.5q33.5 43.5 33.5 146.5q0 102 -33.5 144.5t-96.5 42.5t-96.5 -43.5t-33.5 -146.5q0 -102 33.5 -144.5t96.5 -42.5t96.5 43.5z
M209 732l90 122h148l90 -122h-122l-42 54l-42 -54h-122zM507 806l28 112h191l-133 -112h-86z" />
    <glyph glyph-name="uni1ED8" unicode="&#x1ed8;" horiz-adv-x="744" 
d="M126 72q-91 87 -91 261q0 170 88.5 259.5t248.5 89.5q155 0 246 -87t91 -261q0 -170 -88.5 -259.5t-248.5 -89.5q-155 0 -246 87zM468.5 188.5q33.5 43.5 33.5 146.5q0 102 -33.5 144.5t-96.5 42.5t-96.5 -43.5t-33.5 -146.5q0 -102 33.5 -144.5t96.5 -42.5t96.5 43.5z
M312 -159v109h120v-109h-120zM208 736l90 122h148l90 -122h-122l-42 54l-42 -54h-122z" />
    <glyph glyph-name="uni1ED2" unicode="&#x1ed2;" horiz-adv-x="744" 
d="M126 72q-91 87 -91 261q0 170 88.5 259.5t248.5 89.5q155 0 246 -87t91 -261q0 -170 -88.5 -259.5t-248.5 -89.5q-155 0 -246 87zM468.5 188.5q33.5 43.5 33.5 146.5q0 102 -33.5 144.5t-96.5 42.5t-96.5 -43.5t-33.5 -146.5q0 -102 33.5 -144.5t96.5 -42.5t96.5 43.5z
M218 732l90 122h148l90 -122h-122l-42 54l-42 -54h-122zM140 806l-103 110h157l42 -110h-96z" />
    <glyph glyph-name="uni1ED4" unicode="&#x1ed4;" horiz-adv-x="744" 
d="M126 72q-91 87 -91 261q0 170 88.5 259.5t248.5 89.5q155 0 246 -87t91 -261q0 -170 -88.5 -259.5t-248.5 -89.5q-155 0 -246 87zM468.5 188.5q33.5 43.5 33.5 146.5q0 102 -33.5 144.5t-96.5 42.5t-96.5 -43.5t-33.5 -146.5q0 -102 33.5 -144.5t96.5 -42.5t96.5 43.5z
M198 741l90 122h148l90 -122h-122l-42 54l-42 -54h-122zM495 866q15 0 25.5 7t10.5 17q0 23 -40 23q-14 0 -31 -4v65q23 5 70 5q55 0 88 -20t33 -62q0 -31 -16 -49t-43 -18v-23h-97v59z" />
    <glyph glyph-name="uni1ED6" unicode="&#x1ed6;" horiz-adv-x="744" 
d="M126 72q-91 87 -91 261q0 170 88.5 259.5t248.5 89.5q155 0 246 -87t91 -261q0 -170 -88.5 -259.5t-248.5 -89.5q-155 0 -246 87zM468.5 188.5q33.5 43.5 33.5 146.5q0 102 -33.5 144.5t-96.5 42.5t-96.5 -43.5t-33.5 -146.5q0 -102 33.5 -144.5t96.5 -42.5t96.5 43.5z
M218 724l90 122h148l90 -122h-122l-42 54l-42 -54h-122zM178 892q0 40 16 75.5t45.5 56.5t68.5 21q25 0 46 -9.5t47 -27.5q20 -14 35 -21t30 -7q38 0 38 63h81q0 -47 -17.5 -81.5t-46 -52.5t-60.5 -18q-39 0 -63 11t-52 31q-15 12 -24.5 17.5t-21.5 5.5q-23 0 -33 -19.5
t-10 -44.5h-79z" />
    <glyph glyph-name="uni020C" unicode="&#x20c;" horiz-adv-x="744" 
d="M126 72q-91 87 -91 261q0 170 88.5 259.5t248.5 89.5q155 0 246 -87t91 -261q0 -170 -88.5 -259.5t-248.5 -89.5q-155 0 -246 87zM468.5 188.5q33.5 43.5 33.5 146.5q0 102 -33.5 144.5t-96.5 42.5t-96.5 -43.5t-33.5 -146.5q0 -102 33.5 -144.5t96.5 -42.5t96.5 43.5z
M242 744l-103 110h157l42 -110h-96zM434 745l-103 110h157l42 -110h-96z" />
    <glyph glyph-name="Odieresis" unicode="&#xd6;" horiz-adv-x="744" 
d="M126 72q-91 87 -91 261q0 170 88.5 259.5t248.5 89.5q155 0 246 -87t91 -261q0 -170 -88.5 -259.5t-248.5 -89.5q-155 0 -246 87zM468.5 188.5q33.5 43.5 33.5 146.5q0 102 -33.5 144.5t-96.5 42.5t-96.5 -43.5t-33.5 -146.5q0 -102 33.5 -144.5t96.5 -42.5t96.5 43.5z
M193 724v109h150v-109h-150zM392 724v109h150v-109h-150z" />
    <glyph glyph-name="uni022A" unicode="&#x22a;" horiz-adv-x="744" 
d="M126 72q-91 87 -91 261q0 170 88.5 259.5t248.5 89.5q155 0 246 -87t91 -261q0 -170 -88.5 -259.5t-248.5 -89.5q-155 0 -246 87zM468.5 188.5q33.5 43.5 33.5 146.5q0 102 -33.5 144.5t-96.5 42.5t-96.5 -43.5t-33.5 -146.5q0 -102 33.5 -144.5t96.5 -42.5t96.5 43.5z
M193 724v109h150v-109h-150zM392 724v109h150v-109h-150zM219 876v112h294v-112h-294z" />
    <glyph glyph-name="uni0230" unicode="&#x230;" horiz-adv-x="744" 
d="M126 72q-91 87 -91 261q0 170 88.5 259.5t248.5 89.5q155 0 246 -87t91 -261q0 -170 -88.5 -259.5t-248.5 -89.5q-155 0 -246 87zM468.5 188.5q33.5 43.5 33.5 146.5q0 102 -33.5 144.5t-96.5 42.5t-96.5 -43.5t-33.5 -146.5q0 -102 33.5 -144.5t96.5 -42.5t96.5 43.5z
M288 724v109h140v-109h-140zM219 888v112h294v-112h-294z" />
    <glyph glyph-name="uni1ECC" unicode="&#x1ecc;" horiz-adv-x="744" 
d="M126 72q-91 87 -91 261q0 170 88.5 259.5t248.5 89.5q155 0 246 -87t91 -261q0 -170 -88.5 -259.5t-248.5 -89.5q-155 0 -246 87zM468.5 188.5q33.5 43.5 33.5 146.5q0 102 -33.5 144.5t-96.5 42.5t-96.5 -43.5t-33.5 -146.5q0 -102 33.5 -144.5t96.5 -42.5t96.5 43.5z
M312 -159v109h120v-109h-120z" />
    <glyph glyph-name="Ograve" unicode="&#xd2;" horiz-adv-x="744" 
d="M126 72q-91 87 -91 261q0 170 88.5 259.5t248.5 89.5q155 0 246 -87t91 -261q0 -170 -88.5 -259.5t-248.5 -89.5q-155 0 -246 87zM468.5 188.5q33.5 43.5 33.5 146.5q0 102 -33.5 144.5t-96.5 42.5t-96.5 -43.5t-33.5 -146.5q0 -102 33.5 -144.5t96.5 -42.5t96.5 43.5z
M329 744l-103 110h157l42 -110h-96z" />
    <glyph glyph-name="uni1ECE" unicode="&#x1ece;" horiz-adv-x="744" 
d="M126 72q-91 87 -91 261q0 170 88.5 259.5t248.5 89.5q155 0 246 -87t91 -261q0 -170 -88.5 -259.5t-248.5 -89.5q-155 0 -246 87zM468.5 188.5q33.5 43.5 33.5 146.5q0 102 -33.5 144.5t-96.5 42.5t-96.5 -43.5t-33.5 -146.5q0 -102 33.5 -144.5t96.5 -42.5t96.5 43.5z
M314 794q15 0 25.5 7t10.5 17q0 23 -40 23q-14 0 -31 -4v65q23 5 70 5q55 0 88 -20t33 -62q0 -31 -16 -49t-43 -18v-23h-97v59z" />
    <glyph glyph-name="Ohorn" unicode="&#x1a0;" horiz-adv-x="744" 
d="M709 334q0 -170 -88.5 -259.5t-248.5 -89.5q-155 0 -246 87t-91 261q0 170 88.5 259.5t248.5 89.5q63 0 112 -13q56 3 56 38v42h107v-68q0 -49 -39 -76q101 -91 101 -271zM468.5 188.5q33.5 43.5 33.5 146.5q0 102 -33.5 144.5t-96.5 42.5t-96.5 -43.5t-33.5 -146.5
q0 -102 33.5 -144.5t96.5 -42.5t96.5 43.5z" />
    <glyph glyph-name="uni1EDA" unicode="&#x1eda;" horiz-adv-x="744" 
d="M709 334q0 -170 -88.5 -259.5t-248.5 -89.5q-155 0 -246 87t-91 261q0 170 88.5 259.5t248.5 89.5q63 0 112 -13q56 3 56 38v42h107v-68q0 -49 -39 -76q101 -91 101 -271zM468.5 188.5q33.5 43.5 33.5 146.5q0 102 -33.5 144.5t-96.5 42.5t-96.5 -43.5t-33.5 -146.5
q0 -102 33.5 -144.5t96.5 -42.5t96.5 43.5zM324 744l28 112h191l-133 -112h-86z" />
    <glyph glyph-name="uni1EE2" unicode="&#x1ee2;" horiz-adv-x="744" 
d="M709 334q0 -170 -88.5 -259.5t-248.5 -89.5q-155 0 -246 87t-91 261q0 170 88.5 259.5t248.5 89.5q63 0 112 -13q56 3 56 38v42h107v-68q0 -49 -39 -76q101 -91 101 -271zM468.5 188.5q33.5 43.5 33.5 146.5q0 102 -33.5 144.5t-96.5 42.5t-96.5 -43.5t-33.5 -146.5
q0 -102 33.5 -144.5t96.5 -42.5t96.5 43.5zM312 -159v109h120v-109h-120z" />
    <glyph glyph-name="uni1EDC" unicode="&#x1edc;" horiz-adv-x="744" 
d="M709 334q0 -170 -88.5 -259.5t-248.5 -89.5q-155 0 -246 87t-91 261q0 170 88.5 259.5t248.5 89.5q63 0 112 -13q56 3 56 38v42h107v-68q0 -49 -39 -76q101 -91 101 -271zM468.5 188.5q33.5 43.5 33.5 146.5q0 102 -33.5 144.5t-96.5 42.5t-96.5 -43.5t-33.5 -146.5
q0 -102 33.5 -144.5t96.5 -42.5t96.5 43.5zM329 744l-103 110h157l42 -110h-96z" />
    <glyph glyph-name="uni1EDE" unicode="&#x1ede;" horiz-adv-x="744" 
d="M709 334q0 -170 -88.5 -259.5t-248.5 -89.5q-155 0 -246 87t-91 261q0 170 88.5 259.5t248.5 89.5q63 0 112 -13q56 3 56 38v42h107v-68q0 -49 -39 -76q101 -91 101 -271zM468.5 188.5q33.5 43.5 33.5 146.5q0 102 -33.5 144.5t-96.5 42.5t-96.5 -43.5t-33.5 -146.5
q0 -102 33.5 -144.5t96.5 -42.5t96.5 43.5zM314 794q15 0 25.5 7t10.5 17q0 23 -40 23q-14 0 -31 -4v65q23 5 70 5q55 0 88 -20t33 -62q0 -31 -16 -49t-43 -18v-23h-97v59z" />
    <glyph glyph-name="uni1EE0" unicode="&#x1ee0;" horiz-adv-x="744" 
d="M709 334q0 -170 -88.5 -259.5t-248.5 -89.5q-155 0 -246 87t-91 261q0 170 88.5 259.5t248.5 89.5q63 0 112 -13q56 3 56 38v42h107v-68q0 -49 -39 -76q101 -91 101 -271zM468.5 188.5q33.5 43.5 33.5 146.5q0 102 -33.5 144.5t-96.5 42.5t-96.5 -43.5t-33.5 -146.5
q0 -102 33.5 -144.5t96.5 -42.5t96.5 43.5zM178 746q0 40 16 75.5t45.5 56.5t68.5 21q25 0 46 -9.5t47 -27.5q20 -14 35 -21t30 -7q38 0 38 63h81q0 -47 -17.5 -81.5t-46 -52.5t-60.5 -18q-39 0 -63 11t-52 31q-15 12 -24.5 17.5t-21.5 5.5q-23 0 -33 -19.5t-10 -44.5h-79z
" />
    <glyph glyph-name="Ohungarumlaut" unicode="&#x150;" horiz-adv-x="744" 
d="M126 72q-91 87 -91 261q0 170 88.5 259.5t248.5 89.5q155 0 246 -87t91 -261q0 -170 -88.5 -259.5t-248.5 -89.5q-155 0 -246 87zM468.5 188.5q33.5 43.5 33.5 146.5q0 102 -33.5 144.5t-96.5 42.5t-96.5 -43.5t-33.5 -146.5q0 -102 33.5 -144.5t96.5 -42.5t96.5 43.5z
M247 754l62 117h117l-93 -117h-86zM398 754l62 117h117l-93 -117h-86z" />
    <glyph glyph-name="uni020E" unicode="&#x20e;" horiz-adv-x="744" 
d="M126 72q-91 87 -91 261q0 170 88.5 259.5t248.5 89.5q155 0 246 -87t91 -261q0 -170 -88.5 -259.5t-248.5 -89.5q-155 0 -246 87zM468.5 188.5q33.5 43.5 33.5 146.5q0 102 -33.5 144.5t-96.5 42.5t-96.5 -43.5t-33.5 -146.5q0 -102 33.5 -144.5t96.5 -42.5t96.5 43.5z
M486.5 841.5q37.5 -38.5 43.5 -102.5h-97q-18 56 -61 56q-24 0 -39 -17t-22 -39h-96q11 66 46 103.5t111 37.5q77 0 114.5 -38.5z" />
    <glyph glyph-name="Omacron" unicode="&#x14c;" horiz-adv-x="744" 
d="M126 72q-91 87 -91 261q0 170 88.5 259.5t248.5 89.5q155 0 246 -87t91 -261q0 -170 -88.5 -259.5t-248.5 -89.5q-155 0 -246 87zM468.5 188.5q33.5 43.5 33.5 146.5q0 102 -33.5 144.5t-96.5 42.5t-96.5 -43.5t-33.5 -146.5q0 -102 33.5 -144.5t96.5 -42.5t96.5 43.5z
M219 740v112h294v-112h-294z" />
    <glyph glyph-name="uni1E52" unicode="&#x1e52;" horiz-adv-x="744" 
d="M126 72q-91 87 -91 261q0 170 88.5 259.5t248.5 89.5q155 0 246 -87t91 -261q0 -170 -88.5 -259.5t-248.5 -89.5q-155 0 -246 87zM468.5 188.5q33.5 43.5 33.5 146.5q0 102 -33.5 144.5t-96.5 42.5t-96.5 -43.5t-33.5 -146.5q0 -102 33.5 -144.5t96.5 -42.5t96.5 43.5z
M219 740v112h294v-112h-294zM324 889l28 112h191l-133 -112h-86z" />
    <glyph glyph-name="uni1E50" unicode="&#x1e50;" horiz-adv-x="744" 
d="M126 72q-91 87 -91 261q0 170 88.5 259.5t248.5 89.5q155 0 246 -87t91 -261q0 -170 -88.5 -259.5t-248.5 -89.5q-155 0 -246 87zM468.5 188.5q33.5 43.5 33.5 146.5q0 102 -33.5 144.5t-96.5 42.5t-96.5 -43.5t-33.5 -146.5q0 -102 33.5 -144.5t96.5 -42.5t96.5 43.5z
M219 740v112h294v-112h-294zM329 889l-103 110h157l42 -110h-96z" />
    <glyph glyph-name="uni01EA" unicode="&#x1ea;" horiz-adv-x="744" 
d="M657.5 122.5q-51.5 -83.5 -147.5 -116.5l20 -6q-99 -38 -99 -74q0 -21 9 -28.5t26 -7.5q29 0 70 37v-95q-24 -12 -46 -19t-59 -7q-74 0 -108.5 24.5t-34.5 76.5q0 45 48 79q-139 10 -220 96.5t-81 250.5q0 170 88.5 259.5t248.5 89.5q155 0 246 -87t91 -261
q0 -128 -51.5 -211.5zM275.5 187.5q33.5 -42.5 96.5 -42.5t96.5 43.5t33.5 146.5q0 102 -33.5 144.5t-96.5 42.5t-96.5 -43.5t-33.5 -146.5q0 -102 33.5 -144.5z" />
    <glyph glyph-name="Oslash" unicode="&#xd8;" horiz-adv-x="744" 
d="M642 568q67 -87 67 -234q0 -170 -88.5 -259.5t-248.5 -89.5q-123 0 -204 53l-34 -38h-124l90 101q-65 89 -65 232q0 170 88.5 259.5t248.5 89.5q120 0 201 -51l32 35h125zM247 265l206 231q-29 26 -81 26q-63 0 -96.5 -43.5t-33.5 -146.5q0 -35 5 -67zM497 405l-208 -232
q29 -28 83 -28q63 0 96.5 43.5t33.5 146.5q0 37 -5 70z" />
    <glyph glyph-name="Oslashacute" unicode="&#x1fe;" horiz-adv-x="744" 
d="M642 568q67 -87 67 -234q0 -170 -88.5 -259.5t-248.5 -89.5q-123 0 -204 53l-34 -38h-124l90 101q-65 89 -65 232q0 170 88.5 259.5t248.5 89.5q120 0 201 -51l32 35h125zM247 265l206 231q-29 26 -81 26q-63 0 -96.5 -43.5t-33.5 -146.5q0 -35 5 -67zM497 405l-208 -232
q29 -28 83 -28q63 0 96.5 43.5t33.5 146.5q0 37 -5 70zM324 714l28 112h191l-133 -112h-86z" />
    <glyph glyph-name="Otilde" unicode="&#xd5;" horiz-adv-x="744" 
d="M126 72q-91 87 -91 261q0 170 88.5 259.5t248.5 89.5q155 0 246 -87t91 -261q0 -170 -88.5 -259.5t-248.5 -89.5q-155 0 -246 87zM468.5 188.5q33.5 43.5 33.5 146.5q0 102 -33.5 144.5t-96.5 42.5t-96.5 -43.5t-33.5 -146.5q0 -102 33.5 -144.5t96.5 -42.5t96.5 43.5z
M178 746q0 40 16 75.5t45.5 56.5t68.5 21q25 0 46 -9.5t47 -27.5q20 -14 35 -21t30 -7q38 0 38 63h81q0 -47 -17.5 -81.5t-46 -52.5t-60.5 -18q-39 0 -63 11t-52 31q-15 12 -24.5 17.5t-21.5 5.5q-23 0 -33 -19.5t-10 -44.5h-79z" />
    <glyph glyph-name="uni1E4C" unicode="&#x1e4c;" horiz-adv-x="744" 
d="M126 72q-91 87 -91 261q0 170 88.5 259.5t248.5 89.5q155 0 246 -87t91 -261q0 -170 -88.5 -259.5t-248.5 -89.5q-155 0 -246 87zM468.5 188.5q33.5 43.5 33.5 146.5q0 102 -33.5 144.5t-96.5 42.5t-96.5 -43.5t-33.5 -146.5q0 -102 33.5 -144.5t96.5 -42.5t96.5 43.5z
M178 746q0 40 16 75.5t45.5 56.5t68.5 21q25 0 46 -9.5t47 -27.5q20 -14 35 -21t30 -7q38 0 38 63h81q0 -47 -17.5 -81.5t-46 -52.5t-60.5 -18q-39 0 -63 11t-52 31q-15 12 -24.5 17.5t-21.5 5.5q-23 0 -33 -19.5t-10 -44.5h-79zM324 953l28 112h191l-133 -112h-86z" />
    <glyph glyph-name="uni1E4E" unicode="&#x1e4e;" horiz-adv-x="744" 
d="M126 72q-91 87 -91 261q0 170 88.5 259.5t248.5 89.5q155 0 246 -87t91 -261q0 -170 -88.5 -259.5t-248.5 -89.5q-155 0 -246 87zM468.5 188.5q33.5 43.5 33.5 146.5q0 102 -33.5 144.5t-96.5 42.5t-96.5 -43.5t-33.5 -146.5q0 -102 33.5 -144.5t96.5 -42.5t96.5 43.5z
M178 746q0 40 16 75.5t45.5 56.5t68.5 21q25 0 46 -9.5t47 -27.5q20 -14 35 -21t30 -7q38 0 38 63h81q0 -47 -17.5 -81.5t-46 -52.5t-60.5 -18q-39 0 -63 11t-52 31q-15 12 -24.5 17.5t-21.5 5.5q-23 0 -33 -19.5t-10 -44.5h-79zM193 933v109h150v-109h-150zM392 933v109
h150v-109h-150z" />
    <glyph glyph-name="uni022C" unicode="&#x22c;" horiz-adv-x="744" 
d="M126 72q-91 87 -91 261q0 170 88.5 259.5t248.5 89.5q155 0 246 -87t91 -261q0 -170 -88.5 -259.5t-248.5 -89.5q-155 0 -246 87zM468.5 188.5q33.5 43.5 33.5 146.5q0 102 -33.5 144.5t-96.5 42.5t-96.5 -43.5t-33.5 -146.5q0 -102 33.5 -144.5t96.5 -42.5t96.5 43.5z
M178 746q0 40 16 75.5t45.5 56.5t68.5 21q25 0 46 -9.5t47 -27.5q20 -14 35 -21t30 -7q38 0 38 63h81q0 -47 -17.5 -81.5t-46 -52.5t-60.5 -18q-39 0 -63 11t-52 31q-15 12 -24.5 17.5t-21.5 5.5q-23 0 -33 -19.5t-10 -44.5h-79zM219 949v112h294v-112h-294z" />
    <glyph glyph-name="OE" unicode="&#x152;" horiz-adv-x="1038" 
d="M706 517v-108h233v-150h-234v-109h273v-150h-473v4q-62 -19 -133 -19q-155 0 -246 87t-91 261q0 170 88.5 259.5t248.5 89.5q75 0 133 -19v4h473v-150h-272zM468.5 188.5q33.5 43.5 33.5 146.5q0 102 -33.5 144.5t-96.5 42.5t-96.5 -43.5t-33.5 -146.5
q0 -102 33.5 -144.5t96.5 -42.5t96.5 43.5z" />
    <glyph glyph-name="P" unicode="P" horiz-adv-x="686" 
d="M265 0h-200v667h327q123 0 191 -55t68 -167q0 -115 -69 -178.5t-190 -63.5h-127v-203zM367 353q28 0 47 20t19 57q0 43 -19 65t-47 22h-102v-164h102z" />
    <glyph glyph-name="Thorn" unicode="&#xde;" horiz-adv-x="653" 
d="M86 667h172v-99h86q121 0 188 -61.5t67 -172.5q0 -112 -67 -173.5t-188 -61.5h-86v-99h-172v667zM328 241q52 0 76 27.5t24 65.5q0 37 -24 65.5t-76 28.5h-70v-187h70z" />
    <glyph glyph-name="Q" unicode="Q" horiz-adv-x="744" 
d="M640 2q20 0 34 4t34 16v-115q-35 -19 -107 -19q-123 0 -166 90q-30 -3 -63 -3q-167 0 -252 86.5t-85 271.5q0 180 83 269.5t254 89.5q167 0 252 -86.5t85 -271.5q0 -220 -123 -304q23 -28 54 -28zM275.5 495.5q-33.5 -46.5 -33.5 -163.5q0 -25 2 -63q23 23 56 36.5
t69 13.5q83 0 129 -60q4 29 4 76q0 116 -33 161.5t-97 45.5q-63 0 -96.5 -46.5zM309.5 119q25.5 -14 62.5 -14q15 0 30 3q-13 36 -32.5 56t-40.5 20q-34 0 -61 -17q16 -34 41.5 -48z" />
    <glyph glyph-name="R" unicode="R" horiz-adv-x="743" 
d="M450 0l-115 213h-70v-213h-200v667h347q122 0 190.5 -55t68.5 -164q0 -61 -33.5 -117t-95.5 -78l166 -253h-258zM434.5 374q18.5 20 18.5 65q0 38 -19 58t-47 20h-122v-163h122q29 0 47.5 20z" />
    <glyph glyph-name="Racute" unicode="&#x154;" horiz-adv-x="743" 
d="M450 0l-115 213h-70v-213h-200v667h347q122 0 190.5 -55t68.5 -164q0 -61 -33.5 -117t-95.5 -78l166 -253h-258zM434.5 374q18.5 20 18.5 65q0 38 -19 58t-47 20h-122v-163h122q29 0 47.5 20zM294 714l28 112h191l-133 -112h-86z" />
    <glyph glyph-name="Rcaron" unicode="&#x158;" horiz-adv-x="743" 
d="M450 0l-115 213h-70v-213h-200v667h347q122 0 190.5 -55t68.5 -164q0 -61 -33.5 -117t-95.5 -78l166 -253h-258zM434.5 374q18.5 20 18.5 65q0 38 -19 58t-47 20h-122v-163h122q29 0 47.5 20zM263 699l-80 122h112l42 -54l42 54h112l-70 -122h-158z" />
    <glyph glyph-name="Rcommaaccent" unicode="&#x156;" horiz-adv-x="743" 
d="M450 0l-115 213h-70v-213h-200v667h347q122 0 190.5 -55t68.5 -164q0 -61 -33.5 -117t-95.5 -78l166 -253h-258zM434.5 374q18.5 20 18.5 65q0 38 -19 58t-47 20h-122v-163h122q29 0 47.5 20zM275 -119q22 4 30.5 19t7.5 50h135q2 -63 -43.5 -103.5t-129.5 -40.5v75z" />
    <glyph glyph-name="uni0210" unicode="&#x210;" horiz-adv-x="743" 
d="M450 0l-115 213h-70v-213h-200v667h347q122 0 190.5 -55t68.5 -164q0 -61 -33.5 -117t-95.5 -78l166 -253h-258zM434.5 374q18.5 20 18.5 65q0 38 -19 58t-47 20h-122v-163h122q29 0 47.5 20zM212 714l-103 110h157l42 -110h-96zM404 715l-103 110h157l42 -110h-96z" />
    <glyph glyph-name="uni0212" unicode="&#x212;" horiz-adv-x="743" 
d="M450 0l-115 213h-70v-213h-200v667h347q122 0 190.5 -55t68.5 -164q0 -61 -33.5 -117t-95.5 -78l166 -253h-258zM434.5 374q18.5 20 18.5 65q0 38 -19 58t-47 20h-122v-163h122q29 0 47.5 20zM456.5 811.5q37.5 -38.5 43.5 -102.5h-97q-18 56 -61 56q-24 0 -39 -17
t-22 -39h-96q11 66 46 103.5t111 37.5q77 0 114.5 -38.5z" />
    <glyph glyph-name="uni1E5E" unicode="&#x1e5e;" horiz-adv-x="743" 
d="M450 0l-115 213h-70v-213h-200v667h347q122 0 190.5 -55t68.5 -164q0 -61 -33.5 -117t-95.5 -78l166 -253h-258zM434.5 374q18.5 20 18.5 65q0 38 -19 58t-47 20h-122v-163h122q29 0 47.5 20zM219 -155v112h294v-112h-294z" />
    <glyph glyph-name="S" unicode="S" horiz-adv-x="586" 
d="M163 -6q-60 9 -107 32v186q49 -38 108 -57.5t108 -19.5q35 0 54 11.5t19 40.5q0 21 -25 33.5t-84 31.5q-24 6 -59 18q-65 22 -103.5 64t-38.5 120q0 65 31.5 117t94.5 82.5t154 30.5q61 0 107.5 -10t92.5 -33v-190q-38 34 -94.5 59t-100.5 25q-35 0 -57.5 -13.5
t-22.5 -42.5q0 -27 24 -40t80 -29q5 -1 20 -5q95 -27 141 -68.5t46 -124.5q0 -67 -31 -118.5t-87.5 -80t-128.5 -28.5q-81 0 -141 9z" />
    <glyph glyph-name="Sacute" unicode="&#x15a;" horiz-adv-x="586" 
d="M163 -6q-60 9 -107 32v186q49 -38 108 -57.5t108 -19.5q35 0 54 11.5t19 40.5q0 21 -25 33.5t-84 31.5q-24 6 -59 18q-65 22 -103.5 64t-38.5 120q0 65 31.5 117t94.5 82.5t154 30.5q61 0 107.5 -10t92.5 -33v-190q-38 34 -94.5 59t-100.5 25q-35 0 -57.5 -13.5
t-22.5 -42.5q0 -27 24 -40t80 -29q5 -1 20 -5q95 -27 141 -68.5t46 -124.5q0 -67 -31 -118.5t-87.5 -80t-128.5 -28.5q-81 0 -141 9zM267 744l28 112h191l-133 -112h-86z" />
    <glyph glyph-name="uni1E64" unicode="&#x1e64;" horiz-adv-x="586" 
d="M163 -6q-60 9 -107 32v186q49 -38 108 -57.5t108 -19.5q35 0 54 11.5t19 40.5q0 21 -25 33.5t-84 31.5q-24 6 -59 18q-65 22 -103.5 64t-38.5 120q0 65 31.5 117t94.5 82.5t154 30.5q61 0 107.5 -10t92.5 -33v-190q-38 34 -94.5 59t-100.5 25q-35 0 -57.5 -13.5
t-22.5 -42.5q0 -27 24 -40t80 -29q5 -1 20 -5q95 -27 141 -68.5t46 -124.5q0 -67 -31 -118.5t-87.5 -80t-128.5 -28.5q-81 0 -141 9zM311 744l28 112h191l-133 -112h-86zM131 747v109h140v-109h-140z" />
    <glyph glyph-name="Scaron" unicode="&#x160;" horiz-adv-x="586" 
d="M163 -6q-60 9 -107 32v186q49 -38 108 -57.5t108 -19.5q35 0 54 11.5t19 40.5q0 21 -25 33.5t-84 31.5q-24 6 -59 18q-65 22 -103.5 64t-38.5 120q0 65 31.5 117t94.5 82.5t154 30.5q61 0 107.5 -10t92.5 -33v-190q-38 34 -94.5 59t-100.5 25q-35 0 -57.5 -13.5
t-22.5 -42.5q0 -27 24 -40t80 -29q5 -1 20 -5q95 -27 141 -68.5t46 -124.5q0 -67 -31 -118.5t-87.5 -80t-128.5 -28.5q-81 0 -141 9zM236 729l-80 122h112l42 -54l42 54h112l-70 -122h-158z" />
    <glyph glyph-name="uni1E66" unicode="&#x1e66;" horiz-adv-x="586" 
d="M163 -6q-60 9 -107 32v186q49 -38 108 -57.5t108 -19.5q35 0 54 11.5t19 40.5q0 21 -25 33.5t-84 31.5q-24 6 -59 18q-65 22 -103.5 64t-38.5 120q0 65 31.5 117t94.5 82.5t154 30.5q61 0 107.5 -10t92.5 -33v-190q-38 34 -94.5 59t-100.5 25q-35 0 -57.5 -13.5
t-22.5 -42.5q0 -27 24 -40t80 -29q5 -1 20 -5q95 -27 141 -68.5t46 -124.5q0 -67 -31 -118.5t-87.5 -80t-128.5 -28.5q-81 0 -141 9zM236 729l-80 122h112l42 -54l42 54h112l-70 -122h-158zM235 889v109h140v-109h-140z" />
    <glyph glyph-name="Scedilla" unicode="&#x15e;" horiz-adv-x="586" 
d="M520.5 94.5q-30.5 -51.5 -86 -80t-126.5 -29.5l-39 -112h-159l81 117q-81 9 -135 36v186q49 -38 108 -57.5t108 -19.5q35 0 54 11.5t19 40.5q0 21 -25 33.5t-84 31.5q-24 6 -59 18q-65 22 -103.5 64t-38.5 120q0 65 31.5 117t94.5 82.5t154 30.5q61 0 107.5 -10t92.5 -33
v-190q-38 34 -94.5 59t-100.5 25q-35 0 -57.5 -13.5t-22.5 -42.5q0 -27 24 -40t80 -29q5 -1 20 -5q95 -27 141 -68.5t46 -124.5q0 -66 -30.5 -117.5z" />
    <glyph glyph-name="Scircumflex" unicode="&#x15c;" horiz-adv-x="586" 
d="M163 -6q-60 9 -107 32v186q49 -38 108 -57.5t108 -19.5q35 0 54 11.5t19 40.5q0 21 -25 33.5t-84 31.5q-24 6 -59 18q-65 22 -103.5 64t-38.5 120q0 65 31.5 117t94.5 82.5t154 30.5q61 0 107.5 -10t92.5 -33v-190q-38 34 -94.5 59t-100.5 25q-35 0 -57.5 -13.5
t-22.5 -42.5q0 -27 24 -40t80 -29q5 -1 20 -5q95 -27 141 -68.5t46 -124.5q0 -67 -31 -118.5t-87.5 -80t-128.5 -28.5q-81 0 -141 9zM151 736l90 122h148l90 -122h-122l-42 54l-42 -54h-122z" />
    <glyph glyph-name="Scommaaccent" unicode="&#x218;" horiz-adv-x="586" 
d="M163 -6q-60 9 -107 32v186q49 -38 108 -57.5t108 -19.5q35 0 54 11.5t19 40.5q0 21 -25 33.5t-84 31.5q-24 6 -59 18q-65 22 -103.5 64t-38.5 120q0 65 31.5 117t94.5 82.5t154 30.5q61 0 107.5 -10t92.5 -33v-190q-38 34 -94.5 59t-100.5 25q-35 0 -57.5 -13.5
t-22.5 -42.5q0 -27 24 -40t80 -29q5 -1 20 -5q95 -27 141 -68.5t46 -124.5q0 -67 -31 -118.5t-87.5 -80t-128.5 -28.5q-81 0 -141 9zM163 -119q22 4 30.5 19t7.5 50h135q2 -63 -43.5 -103.5t-129.5 -40.5v75z" />
    <glyph glyph-name="uni1E60" unicode="&#x1e60;" horiz-adv-x="586" 
d="M163 -6q-60 9 -107 32v186q49 -38 108 -57.5t108 -19.5q35 0 54 11.5t19 40.5q0 21 -25 33.5t-84 31.5q-24 6 -59 18q-65 22 -103.5 64t-38.5 120q0 65 31.5 117t94.5 82.5t154 30.5q61 0 107.5 -10t92.5 -33v-190q-38 34 -94.5 59t-100.5 25q-35 0 -57.5 -13.5
t-22.5 -42.5q0 -27 24 -40t80 -29q5 -1 20 -5q95 -27 141 -68.5t46 -124.5q0 -67 -31 -118.5t-87.5 -80t-128.5 -28.5q-81 0 -141 9zM231 724v109h140v-109h-140z" />
    <glyph glyph-name="uni1E62" unicode="&#x1e62;" horiz-adv-x="586" 
d="M163 -6q-60 9 -107 32v186q49 -38 108 -57.5t108 -19.5q35 0 54 11.5t19 40.5q0 21 -25 33.5t-84 31.5q-24 6 -59 18q-65 22 -103.5 64t-38.5 120q0 65 31.5 117t94.5 82.5t154 30.5q61 0 107.5 -10t92.5 -33v-190q-38 34 -94.5 59t-100.5 25q-35 0 -57.5 -13.5
t-22.5 -42.5q0 -27 24 -40t80 -29q5 -1 20 -5q95 -27 141 -68.5t46 -124.5q0 -67 -31 -118.5t-87.5 -80t-128.5 -28.5q-81 0 -141 9zM200 -159v109h120v-109h-120z" />
    <glyph glyph-name="uni1E68" unicode="&#x1e68;" horiz-adv-x="586" 
d="M163 -6q-60 9 -107 32v186q49 -38 108 -57.5t108 -19.5q35 0 54 11.5t19 40.5q0 21 -25 33.5t-84 31.5q-24 6 -59 18q-65 22 -103.5 64t-38.5 120q0 65 31.5 117t94.5 82.5t154 30.5q61 0 107.5 -10t92.5 -33v-190q-38 34 -94.5 59t-100.5 25q-35 0 -57.5 -13.5
t-22.5 -42.5q0 -27 24 -40t80 -29q5 -1 20 -5q95 -27 141 -68.5t46 -124.5q0 -67 -31 -118.5t-87.5 -80t-128.5 -28.5q-81 0 -141 9zM200 -159v109h120v-109h-120zM231 724v109h140v-109h-140z" />
    <glyph glyph-name="uni1E9E" unicode="&#x1e9e;" horiz-adv-x="731" 
d="M663 319q28 -49 28 -126q0 -58 -33 -108.5t-88.5 -80t-118.5 -29.5q-33 0 -72 10t-63 26v176q53 -62 102 -62q28 0 47.5 15.5t19.5 51.5q0 53 -41.5 93t-101.5 72v9l145 136q-49 40 -106 40q-49 0 -83 -33t-34 -100l-1 -409h-198v434q0 123 79.5 185.5t220.5 62.5
q107 0 189 -48.5t128 -121.5v-18l-100 -95q53 -31 81 -80z" />
    <glyph glyph-name="uni018F" unicode="&#x18f;" horiz-adv-x="748" 
d="M541.5 640q81.5 -45 126.5 -128.5t45 -195.5q0 -105 -42 -181.5t-122.5 -118t-192.5 -41.5q-166 0 -244 98.5t-77 292.5h467q-13 84 -61.5 122t-135.5 38q-55 0 -116 -14t-102 -31v161q55 22 119 32.5t148 10.5q106 0 187.5 -45zM452 151q41 32 52 98h-274
q9 -74 40.5 -102t94.5 -28q46 0 87 32z" />
    <glyph glyph-name="T" unicode="T" horiz-adv-x="588" 
d="M192 0v517h-167v150h538v-150h-171v-517h-200z" />
    <glyph glyph-name="Tbar" unicode="&#x166;" horiz-adv-x="588" 
d="M563 517h-171v-129h64v-108h-64v-280h-200v280h-60v108h60v129h-167v150h538v-150z" />
    <glyph glyph-name="Tcaron" unicode="&#x164;" horiz-adv-x="582" 
d="M267 724l-120 122h102l42 -44l42 44h102l-120 -122h-48zM204 0v511h-192v156h558v-156h-194v-511h-172z" />
    <glyph glyph-name="uni0162" unicode="&#x162;" horiz-adv-x="588" 
d="M25 667h538v-150h-171v-517h-44l-45 -127h-159l88 127h-40v517h-167v150z" />
    <glyph glyph-name="uni1E6E" unicode="&#x1e6e;" horiz-adv-x="588" 
d="M192 0v517h-167v150h538v-150h-171v-517h-200zM141 -155v112h294v-112h-294z" />
    <glyph glyph-name="U" unicode="U" horiz-adv-x="740" 
d="M144 37.5q-79 62.5 -79 201.5v428h210v-416q0 -65 24.5 -95.5t80.5 -30.5q50 0 77.5 32t27.5 94v416h190v-428q0 -134 -77 -199t-207 -65q-168 0 -247 62.5z" />
    <glyph glyph-name="Uacute" unicode="&#xda;" horiz-adv-x="740" 
d="M144 37.5q-79 62.5 -79 201.5v428h210v-416q0 -65 24.5 -95.5t80.5 -30.5q50 0 77.5 32t27.5 94v416h190v-428q0 -134 -77 -199t-207 -65q-168 0 -247 62.5zM322 724l28 112h191l-133 -112h-86z" />
    <glyph glyph-name="Ubreve" unicode="&#x16c;" horiz-adv-x="740" 
d="M144 37.5q-79 62.5 -79 201.5v428h210v-416q0 -65 24.5 -95.5t80.5 -30.5q50 0 77.5 32t27.5 94v416h190v-428q0 -134 -77 -199t-207 -65q-168 0 -247 62.5zM259 750.5q-35 37.5 -46 103.5h96q7 -22 22 -39t39 -17q43 0 61 56h97q-6 -64 -43.5 -102.5t-114.5 -38.5
q-76 0 -111 37.5z" />
    <glyph glyph-name="uni01D3" unicode="&#x1d3;" horiz-adv-x="740" 
d="M144 37.5q-79 62.5 -79 201.5v428h210v-416q0 -65 24.5 -95.5t80.5 -30.5q50 0 77.5 32t27.5 94v416h190v-428q0 -134 -77 -199t-207 -65q-168 0 -247 62.5zM291 709l-80 122h112l42 -54l42 54h112l-70 -122h-158z" />
    <glyph glyph-name="Ucircumflex" unicode="&#xdb;" horiz-adv-x="740" 
d="M144 37.5q-79 62.5 -79 201.5v428h210v-416q0 -65 24.5 -95.5t80.5 -30.5q50 0 77.5 32t27.5 94v416h190v-428q0 -134 -77 -199t-207 -65q-168 0 -247 62.5zM206 716l90 122h148l90 -122h-122l-42 54l-42 -54h-122z" />
    <glyph glyph-name="uni0214" unicode="&#x214;" horiz-adv-x="740" 
d="M144 37.5q-79 62.5 -79 201.5v428h210v-416q0 -65 24.5 -95.5t80.5 -30.5q50 0 77.5 32t27.5 94v416h190v-428q0 -134 -77 -199t-207 -65q-168 0 -247 62.5zM240 724l-103 110h157l42 -110h-96zM432 725l-103 110h157l42 -110h-96z" />
    <glyph glyph-name="Udieresis" unicode="&#xdc;" horiz-adv-x="740" 
d="M144 37.5q-79 62.5 -79 201.5v428h210v-416q0 -65 24.5 -95.5t80.5 -30.5q50 0 77.5 32t27.5 94v416h190v-428q0 -134 -77 -199t-207 -65q-168 0 -247 62.5zM191 704v109h150v-109h-150zM390 704v109h150v-109h-150z" />
    <glyph glyph-name="uni1EE4" unicode="&#x1ee4;" horiz-adv-x="740" 
d="M144 37.5q-79 62.5 -79 201.5v428h210v-416q0 -65 24.5 -95.5t80.5 -30.5q50 0 77.5 32t27.5 94v416h190v-428q0 -134 -77 -199t-207 -65q-168 0 -247 62.5zM310 -159v109h120v-109h-120z" />
    <glyph glyph-name="Ugrave" unicode="&#xd9;" horiz-adv-x="740" 
d="M144 37.5q-79 62.5 -79 201.5v428h210v-416q0 -65 24.5 -95.5t80.5 -30.5q50 0 77.5 32t27.5 94v416h190v-428q0 -134 -77 -199t-207 -65q-168 0 -247 62.5zM327 724l-103 110h157l42 -110h-96z" />
    <glyph glyph-name="uni1EE6" unicode="&#x1ee6;" horiz-adv-x="740" 
d="M144 37.5q-79 62.5 -79 201.5v428h210v-416q0 -65 24.5 -95.5t80.5 -30.5q50 0 77.5 32t27.5 94v416h190v-428q0 -134 -77 -199t-207 -65q-168 0 -247 62.5zM312 774q15 0 25.5 7t10.5 17q0 23 -40 23q-14 0 -31 -4v65q23 5 70 5q55 0 88 -20t33 -62q0 -31 -16 -49
t-43 -18v-23h-97v59z" />
    <glyph glyph-name="Uhorn" unicode="&#x1af;" horiz-adv-x="845" 
d="M787 747v-68q0 -44 -29 -68t-83 -34v-338q0 -134 -77 -199t-207 -65q-168 0 -247 62.5t-79 201.5v428h210v-416q0 -65 24.5 -95.5t80.5 -30.5q50 0 77.5 32t27.5 94v416h143q52 5 52 38v42h107z" />
    <glyph glyph-name="uni1EE8" unicode="&#x1ee8;" horiz-adv-x="845" 
d="M787 747v-68q0 -44 -29 -68t-83 -34v-338q0 -134 -77 -199t-207 -65q-168 0 -247 62.5t-79 201.5v428h210v-416q0 -65 24.5 -95.5t80.5 -30.5q50 0 77.5 32t27.5 94v416h143q52 5 52 38v42h107zM322 724l28 112h191l-133 -112h-86z" />
    <glyph glyph-name="uni1EF0" unicode="&#x1ef0;" horiz-adv-x="845" 
d="M787 747v-68q0 -44 -29 -68t-83 -34v-338q0 -134 -77 -199t-207 -65q-168 0 -247 62.5t-79 201.5v428h210v-416q0 -65 24.5 -95.5t80.5 -30.5q50 0 77.5 32t27.5 94v416h143q52 5 52 38v42h107zM310 -159v109h120v-109h-120z" />
    <glyph glyph-name="uni1EEA" unicode="&#x1eea;" horiz-adv-x="845" 
d="M787 747v-68q0 -44 -29 -68t-83 -34v-338q0 -134 -77 -199t-207 -65q-168 0 -247 62.5t-79 201.5v428h210v-416q0 -65 24.5 -95.5t80.5 -30.5q50 0 77.5 32t27.5 94v416h143q52 5 52 38v42h107zM327 724l-103 110h157l42 -110h-96z" />
    <glyph glyph-name="uni1EEC" unicode="&#x1eec;" horiz-adv-x="845" 
d="M787 747v-68q0 -44 -29 -68t-83 -34v-338q0 -134 -77 -199t-207 -65q-168 0 -247 62.5t-79 201.5v428h210v-416q0 -65 24.5 -95.5t80.5 -30.5q50 0 77.5 32t27.5 94v416h143q52 5 52 38v42h107zM312 774q15 0 25.5 7t10.5 17q0 23 -40 23q-14 0 -31 -4v65q23 5 70 5
q55 0 88 -20t33 -62q0 -31 -16 -49t-43 -18v-23h-97v59z" />
    <glyph glyph-name="uni1EEE" unicode="&#x1eee;" horiz-adv-x="845" 
d="M787 747v-68q0 -44 -29 -68t-83 -34v-338q0 -134 -77 -199t-207 -65q-168 0 -247 62.5t-79 201.5v428h210v-416q0 -65 24.5 -95.5t80.5 -30.5q50 0 77.5 32t27.5 94v416h143q52 5 52 38v42h107zM176 726q0 40 16 75.5t45.5 56.5t68.5 21q25 0 46 -9.5t47 -27.5
q20 -14 35 -21t30 -7q38 0 38 63h81q0 -47 -17.5 -81.5t-46 -52.5t-60.5 -18q-39 0 -63 11t-52 31q-15 12 -24.5 17.5t-21.5 5.5q-23 0 -33 -19.5t-10 -44.5h-79z" />
    <glyph glyph-name="Uhungarumlaut" unicode="&#x170;" horiz-adv-x="740" 
d="M144 37.5q-79 62.5 -79 201.5v428h210v-416q0 -65 24.5 -95.5t80.5 -30.5q50 0 77.5 32t27.5 94v416h190v-428q0 -134 -77 -199t-207 -65q-168 0 -247 62.5zM245 734l62 117h117l-93 -117h-86zM396 734l62 117h117l-93 -117h-86z" />
    <glyph glyph-name="uni0216" unicode="&#x216;" horiz-adv-x="740" 
d="M144 37.5q-79 62.5 -79 201.5v428h210v-416q0 -65 24.5 -95.5t80.5 -30.5q50 0 77.5 32t27.5 94v416h190v-428q0 -134 -77 -199t-207 -65q-168 0 -247 62.5zM484.5 821.5q37.5 -38.5 43.5 -102.5h-97q-18 56 -61 56q-24 0 -39 -17t-22 -39h-96q11 66 46 103.5t111 37.5
q77 0 114.5 -38.5z" />
    <glyph glyph-name="Umacron" unicode="&#x16a;" horiz-adv-x="740" 
d="M144 37.5q-79 62.5 -79 201.5v428h210v-416q0 -65 24.5 -95.5t80.5 -30.5q50 0 77.5 32t27.5 94v416h190v-428q0 -134 -77 -199t-207 -65q-168 0 -247 62.5zM217 720v112h294v-112h-294z" />
    <glyph glyph-name="uni1E7A" unicode="&#x1e7a;" horiz-adv-x="740" 
d="M144 37.5q-79 62.5 -79 201.5v428h210v-416q0 -65 24.5 -95.5t80.5 -30.5q50 0 77.5 32t27.5 94v416h190v-428q0 -134 -77 -199t-207 -65q-168 0 -247 62.5zM217 720v112h294v-112h-294zM191 849v109h150v-109h-150zM390 849v109h150v-109h-150z" />
    <glyph glyph-name="Uogonek" unicode="&#x172;" horiz-adv-x="740" 
d="M675 667v-428q0 -92 -37 -151.5t-105 -87.5h1q-99 -38 -99 -74q0 -21 9 -28.5t26 -7.5q29 0 70 37v-95q-24 -12 -46 -19t-59 -7q-74 0 -108.5 24.5t-34.5 76.5q0 39 37 70q-135 11 -199.5 73.5t-64.5 188.5v428h210v-416q0 -65 24.5 -95.5t80.5 -30.5q50 0 77.5 32
t27.5 94v416h190z" />
    <glyph glyph-name="Uring" unicode="&#x16e;" horiz-adv-x="740" 
d="M144 37.5q-79 62.5 -79 201.5v428h210v-416q0 -65 24.5 -95.5t80.5 -30.5q50 0 77.5 32t27.5 94v416h190v-428q0 -134 -77 -199t-207 -65q-168 0 -247 62.5zM274.5 711q-33.5 25 -33.5 71q0 45 34 70.5t93 25.5q60 0 93.5 -25.5t33.5 -70.5q0 -46 -33.5 -71t-93.5 -25
t-93.5 25zM403 757.5q10 6.5 10 24.5q0 17 -10.5 24t-34.5 7t-34.5 -7t-10.5 -24q0 -18 10 -24.5t35 -6.5t35 6.5z" />
    <glyph glyph-name="Utilde" unicode="&#x168;" horiz-adv-x="740" 
d="M144 37.5q-79 62.5 -79 201.5v428h210v-416q0 -65 24.5 -95.5t80.5 -30.5q50 0 77.5 32t27.5 94v416h190v-428q0 -134 -77 -199t-207 -65q-168 0 -247 62.5zM176 726q0 40 16 75.5t45.5 56.5t68.5 21q25 0 46 -9.5t47 -27.5q20 -14 35 -21t30 -7q38 0 38 63h81
q0 -47 -17.5 -81.5t-46 -52.5t-60.5 -18q-39 0 -63 11t-52 31q-15 12 -24.5 17.5t-21.5 5.5q-23 0 -33 -19.5t-10 -44.5h-79z" />
    <glyph glyph-name="uni1E78" unicode="&#x1e78;" horiz-adv-x="740" 
d="M144 37.5q-79 62.5 -79 201.5v428h210v-416q0 -65 24.5 -95.5t80.5 -30.5q50 0 77.5 32t27.5 94v416h190v-428q0 -134 -77 -199t-207 -65q-168 0 -247 62.5zM176 726q0 40 16 75.5t45.5 56.5t68.5 21q25 0 46 -9.5t47 -27.5q20 -14 35 -21t30 -7q38 0 38 63h81
q0 -47 -17.5 -81.5t-46 -52.5t-60.5 -18q-39 0 -63 11t-52 31q-15 12 -24.5 17.5t-21.5 5.5q-23 0 -33 -19.5t-10 -44.5h-79zM322 933l28 112h191l-133 -112h-86z" />
    <glyph glyph-name="V" unicode="V" horiz-adv-x="746" 
d="M522 667h214l-264 -667h-216l-246 667h234l139 -448z" />
    <glyph glyph-name="W" unicode="W" horiz-adv-x="1024" 
d="M779 667h220l-175 -667h-197l-114 380l-116 -380h-197l-175 667h220l74 -420l119 420h148l119 -421z" />
    <glyph glyph-name="Wacute" unicode="&#x1e82;" horiz-adv-x="1024" 
d="M779 667h220l-175 -667h-197l-114 380l-116 -380h-197l-175 667h220l74 -420l119 420h148l119 -421zM464 714l28 112h191l-133 -112h-86z" />
    <glyph glyph-name="Wcircumflex" unicode="&#x174;" horiz-adv-x="1024" 
d="M779 667h220l-175 -667h-197l-114 380l-116 -380h-197l-175 667h220l74 -420l119 420h148l119 -421zM348 706l90 122h148l90 -122h-122l-42 54l-42 -54h-122z" />
    <glyph glyph-name="Wdieresis" unicode="&#x1e84;" horiz-adv-x="1024" 
d="M779 667h220l-175 -667h-197l-114 380l-116 -380h-197l-175 667h220l74 -420l119 420h148l119 -421zM333 694v109h150v-109h-150zM532 694v109h150v-109h-150z" />
    <glyph glyph-name="Wgrave" unicode="&#x1e80;" horiz-adv-x="1024" 
d="M779 667h220l-175 -667h-197l-114 380l-116 -380h-197l-175 667h220l74 -420l119 420h148l119 -421zM469 714l-103 110h157l42 -110h-96z" />
    <glyph glyph-name="X" unicode="X" horiz-adv-x="718" 
d="M708 0h-250l-121 181l-101 -181h-213l214 329l-227 338h250l124 -185l99 185h217l-214 -337z" />
    <glyph glyph-name="Y" unicode="Y" horiz-adv-x="732" 
d="M707 667l-227 -388v-279h-200v281l-255 386h247l130 -231l112 231h193z" />
    <glyph glyph-name="Yacute" unicode="&#xdd;" horiz-adv-x="732" 
d="M707 667l-227 -388v-279h-200v281l-255 386h247l130 -231l112 231h193zM351 714l28 112h191l-133 -112h-86z" />
    <glyph glyph-name="Ycircumflex" unicode="&#x176;" horiz-adv-x="732" 
d="M707 667l-227 -388v-279h-200v281l-255 386h247l130 -231l112 231h193zM235 706l90 122h148l90 -122h-122l-42 54l-42 -54h-122z" />
    <glyph glyph-name="Ydieresis" unicode="&#x178;" horiz-adv-x="732" 
d="M707 667l-227 -388v-279h-200v281l-255 386h247l130 -231l112 231h193zM220 694v109h150v-109h-150zM419 694v109h150v-109h-150z" />
    <glyph glyph-name="uni1E8E" unicode="&#x1e8e;" horiz-adv-x="732" 
d="M707 667l-227 -388v-279h-200v281l-255 386h247l130 -231l112 231h193zM315 694v109h140v-109h-140z" />
    <glyph glyph-name="uni1EF4" unicode="&#x1ef4;" horiz-adv-x="732" 
d="M707 667l-227 -388v-279h-200v281l-255 386h247l130 -231l112 231h193zM306 -159v109h120v-109h-120z" />
    <glyph glyph-name="Ygrave" unicode="&#x1ef2;" horiz-adv-x="732" 
d="M707 667l-227 -388v-279h-200v281l-255 386h247l130 -231l112 231h193zM356 714l-103 110h157l42 -110h-96z" />
    <glyph glyph-name="uni1EF6" unicode="&#x1ef6;" horiz-adv-x="732" 
d="M707 667l-227 -388v-279h-200v281l-255 386h247l130 -231l112 231h193zM341 764q15 0 25.5 7t10.5 17q0 23 -40 23q-14 0 -31 -4v65q23 5 70 5q55 0 88 -20t33 -62q0 -31 -16 -49t-43 -18v-23h-97v59z" />
    <glyph glyph-name="uni0232" unicode="&#x232;" horiz-adv-x="732" 
d="M707 667l-227 -388v-279h-200v281l-255 386h247l130 -231l112 231h193zM246 710v112h294v-112h-294z" />
    <glyph glyph-name="uni1EF8" unicode="&#x1ef8;" horiz-adv-x="732" 
d="M707 667l-227 -388v-279h-200v281l-255 386h247l130 -231l112 231h193zM205 716q0 40 16 75.5t45.5 56.5t68.5 21q25 0 46 -9.5t47 -27.5q20 -14 35 -21t30 -7q38 0 38 63h81q0 -47 -17.5 -81.5t-46 -52.5t-60.5 -18q-39 0 -63 11t-52 31q-15 12 -24.5 17.5t-21.5 5.5
q-23 0 -33 -19.5t-10 -44.5h-79z" />
    <glyph glyph-name="Z" unicode="Z" horiz-adv-x="644" 
d="M594 667v-139l-292 -377h292v-151h-544v142l301 372h-298v153h541z" />
    <glyph glyph-name="Zacute" unicode="&#x179;" horiz-adv-x="644" 
d="M594 667v-139l-292 -377h292v-151h-544v142l301 372h-298v153h541zM284 714l28 112h191l-133 -112h-86z" />
    <glyph glyph-name="Zcaron" unicode="&#x17d;" horiz-adv-x="644" 
d="M594 667v-139l-292 -377h292v-151h-544v142l301 372h-298v153h541zM253 699l-80 122h112l42 -54l42 54h112l-70 -122h-158z" />
    <glyph glyph-name="Zdotaccent" unicode="&#x17b;" horiz-adv-x="644" 
d="M594 667v-139l-292 -377h292v-151h-544v142l301 372h-298v153h541zM248 694v109h140v-109h-140z" />
    <glyph glyph-name="a" unicode="a" horiz-adv-x="579" 
d="M445 489.5q75 -36.5 74 -147.5l-1 -237q-2 -120 -253 -120q-113 0 -174 41.5t-61 140.5q0 66 44 107.5t135 41.5q33 0 68.5 -9.5t62.5 -24.5v20q0 77 -105 77q-44 0 -89.5 -17t-71.5 -39v158q26 17 83.5 31t127.5 14q85 0 160 -36.5zM325 113.5q15 5.5 15 21.5v62
q-22 7 -51 7q-43 0 -61 -10.5t-18 -35.5q0 -19 16.5 -34.5t38.5 -15.5q45 0 60 5.5z" />
    <glyph glyph-name="aacute" unicode="&#xe1;" horiz-adv-x="579" 
d="M445 489.5q75 -36.5 74 -147.5l-1 -237q-2 -120 -253 -120q-113 0 -174 41.5t-61 140.5q0 66 44 107.5t135 41.5q33 0 68.5 -9.5t62.5 -24.5v20q0 77 -105 77q-44 0 -89.5 -17t-71.5 -39v158q26 17 83.5 31t127.5 14q85 0 160 -36.5zM325 113.5q15 5.5 15 21.5v62
q-22 7 -51 7q-43 0 -61 -10.5t-18 -35.5q0 -19 16.5 -34.5t38.5 -15.5q45 0 60 5.5zM225 576l42 127h177l-123 -127h-96z" />
    <glyph glyph-name="abreve" unicode="&#x103;" horiz-adv-x="579" 
d="M445 489.5q75 -36.5 74 -147.5l-1 -237q-2 -120 -253 -120q-113 0 -174 41.5t-61 140.5q0 66 44 107.5t135 41.5q33 0 68.5 -9.5t62.5 -24.5v20q0 77 -105 77q-44 0 -89.5 -17t-71.5 -39v158q26 17 83.5 31t127.5 14q85 0 160 -36.5zM325 113.5q15 5.5 15 21.5v62
q-22 7 -51 7q-43 0 -61 -10.5t-18 -35.5q0 -19 16.5 -34.5t38.5 -15.5q45 0 60 5.5zM170 602.5q-35 37.5 -46 103.5h96q7 -22 22 -39t39 -17q43 0 61 56h97q-6 -64 -43.5 -102.5t-114.5 -38.5q-76 0 -111 37.5z" />
    <glyph glyph-name="uni1EAF" unicode="&#x1eaf;" horiz-adv-x="579" 
d="M445 489.5q75 -36.5 74 -147.5l-1 -237q-2 -120 -253 -120q-113 0 -174 41.5t-61 140.5q0 66 44 107.5t135 41.5q33 0 68.5 -9.5t62.5 -24.5v20q0 77 -105 77q-44 0 -89.5 -17t-71.5 -39v158q26 17 83.5 31t127.5 14q85 0 160 -36.5zM325 113.5q15 5.5 15 21.5v62
q-22 7 -51 7q-43 0 -61 -10.5t-18 -35.5q0 -19 16.5 -34.5t38.5 -15.5q45 0 60 5.5zM170 602.5q-35 37.5 -46 103.5h96q7 -22 22 -39t39 -17q43 0 61 56h97q-6 -64 -43.5 -102.5t-114.5 -38.5q-76 0 -111 37.5zM233 740l28 112h191l-133 -112h-86z" />
    <glyph glyph-name="uni1EB7" unicode="&#x1eb7;" horiz-adv-x="551" 
d="M183 566q-33 28 -33 79h90q2 -18 11.5 -27t29.5 -9q21 0 30 9t11 27h90q0 -51 -33 -79t-98 -28t-98 28zM445 489.5q75 -36.5 74 -147.5l-1 -237q-2 -120 -253 -120q-113 0 -174 41.5t-61 140.5q0 66 44 107.5t135 41.5q33 0 68.5 -9.5t62.5 -24.5v20q0 77 -105 77
q-44 0 -89.5 -17t-71.5 -39v158q26 17 83.5 31t127.5 14q85 0 160 -36.5zM325 113.5q15 5.5 15 21.5v62q-22 7 -51 7q-43 0 -61 -10.5t-18 -35.5q0 -19 16.5 -34.5t38.5 -15.5q45 0 60 5.5zM221 -159v109h120v-109h-120z" />
    <glyph glyph-name="uni1EB1" unicode="&#x1eb1;" horiz-adv-x="579" 
d="M445 489.5q75 -36.5 74 -147.5l-1 -237q-2 -120 -253 -120q-113 0 -174 41.5t-61 140.5q0 66 44 107.5t135 41.5q33 0 68.5 -9.5t62.5 -24.5v20q0 77 -105 77q-44 0 -89.5 -17t-71.5 -39v158q26 17 83.5 31t127.5 14q85 0 160 -36.5zM325 113.5q15 5.5 15 21.5v62
q-22 7 -51 7q-43 0 -61 -10.5t-18 -35.5q0 -19 16.5 -34.5t38.5 -15.5q45 0 60 5.5zM170 602.5q-35 37.5 -46 103.5h96q7 -22 22 -39t39 -17q43 0 61 56h97q-6 -64 -43.5 -102.5t-114.5 -38.5q-76 0 -111 37.5zM236 727l-123 127h177l42 -127h-96z" />
    <glyph glyph-name="uni1EB3" unicode="&#x1eb3;" horiz-adv-x="579" 
d="M445 489.5q75 -36.5 74 -147.5l-1 -237q-2 -120 -253 -120q-113 0 -174 41.5t-61 140.5q0 66 44 107.5t135 41.5q33 0 68.5 -9.5t62.5 -24.5v20q0 77 -105 77q-44 0 -89.5 -17t-71.5 -39v158q26 17 83.5 31t127.5 14q85 0 160 -36.5zM325 113.5q15 5.5 15 21.5v62
q-22 7 -51 7q-43 0 -61 -10.5t-18 -35.5q0 -19 16.5 -34.5t38.5 -15.5q45 0 60 5.5zM168 602.5q-35 37.5 -46 103.5h96q7 -22 22 -39t39 -17q43 0 61 56h97q-6 -64 -43.5 -102.5t-114.5 -38.5q-76 0 -111 37.5zM243 787q15 0 25.5 7t10.5 17q0 23 -40 23q-14 0 -31 -4v65
q23 5 70 5q55 0 88 -20t33 -62q0 -31 -16 -49t-43 -18v-23h-97v59z" />
    <glyph glyph-name="uni1EB5" unicode="&#x1eb5;" horiz-adv-x="579" 
d="M445 489.5q75 -36.5 74 -147.5l-1 -237q-2 -120 -253 -120q-113 0 -174 41.5t-61 140.5q0 66 44 107.5t135 41.5q33 0 68.5 -9.5t62.5 -24.5v20q0 77 -105 77q-44 0 -89.5 -17t-71.5 -39v158q26 17 83.5 31t127.5 14q85 0 160 -36.5zM325 113.5q15 5.5 15 21.5v62
q-22 7 -51 7q-43 0 -61 -10.5t-18 -35.5q0 -19 16.5 -34.5t38.5 -15.5q45 0 60 5.5zM170 602.5q-35 37.5 -46 103.5h96q7 -22 22 -39t39 -17q43 0 61 56h97q-6 -64 -43.5 -102.5t-114.5 -38.5q-76 0 -111 37.5zM102 764q0 40 16 75.5t45.5 56.5t68.5 21q25 0 46 -9.5
t47 -27.5q20 -14 35 -21t30 -7q38 0 38 63h81q0 -47 -17.5 -81.5t-46 -52.5t-60.5 -18q-39 0 -63 11t-52 31q-15 12 -24.5 17.5t-21.5 5.5q-23 0 -33 -19.5t-10 -44.5h-79z" />
    <glyph glyph-name="uni01CE" unicode="&#x1ce;" horiz-adv-x="579" 
d="M445 489.5q75 -36.5 74 -147.5l-1 -237q-2 -120 -253 -120q-113 0 -174 41.5t-61 140.5q0 66 44 107.5t135 41.5q33 0 68.5 -9.5t62.5 -24.5v20q0 77 -105 77q-44 0 -89.5 -17t-71.5 -39v158q26 17 83.5 31t127.5 14q85 0 160 -36.5zM325 113.5q15 5.5 15 21.5v62
q-22 7 -51 7q-43 0 -61 -10.5t-18 -35.5q0 -19 16.5 -34.5t38.5 -15.5q45 0 60 5.5zM202 594l-80 122h112l42 -54l42 54h112l-70 -122h-158z" />
    <glyph glyph-name="acircumflex" unicode="&#xe2;" horiz-adv-x="579" 
d="M445 489.5q75 -36.5 74 -147.5l-1 -237q-2 -120 -253 -120q-113 0 -174 41.5t-61 140.5q0 66 44 107.5t135 41.5q33 0 68.5 -9.5t62.5 -24.5v20q0 77 -105 77q-44 0 -89.5 -17t-71.5 -39v158q26 17 83.5 31t127.5 14q85 0 160 -36.5zM325 113.5q15 5.5 15 21.5v62
q-22 7 -51 7q-43 0 -61 -10.5t-18 -35.5q0 -19 16.5 -34.5t38.5 -15.5q45 0 60 5.5zM127 584l90 122h148l90 -122h-122l-42 54l-42 -54h-122z" />
    <glyph glyph-name="uni1EA5" unicode="&#x1ea5;" horiz-adv-x="579" 
d="M445 489.5q75 -36.5 74 -147.5l-1 -237q-2 -120 -253 -120q-113 0 -174 41.5t-61 140.5q0 66 44 107.5t135 41.5q33 0 68.5 -9.5t62.5 -24.5v20q0 77 -105 77q-44 0 -89.5 -17t-71.5 -39v158q26 17 83.5 31t127.5 14q85 0 160 -36.5zM325 113.5q15 5.5 15 21.5v62
q-22 7 -51 7q-43 0 -61 -10.5t-18 -35.5q0 -19 16.5 -34.5t38.5 -15.5q45 0 60 5.5zM118 564l90 122h148l90 -122h-122l-42 54l-42 -54h-122zM416 638l28 112h191l-133 -112h-86z" />
    <glyph glyph-name="uni1EAD" unicode="&#x1ead;" horiz-adv-x="551" 
d="M445 489.5q75 -36.5 74 -147.5l-1 -237q-2 -120 -253 -120q-113 0 -174 41.5t-61 140.5q0 66 44 107.5t135 41.5q33 0 68.5 -9.5t62.5 -24.5v20q0 77 -105 77q-44 0 -89.5 -17t-71.5 -39v158q26 17 83.5 31t127.5 14q85 0 160 -36.5zM325 113.5q15 5.5 15 21.5v62
q-22 7 -51 7q-43 0 -61 -10.5t-18 -35.5q0 -19 16.5 -34.5t38.5 -15.5q45 0 60 5.5zM223 -159v109h120v-109h-120zM127 584l90 122h148l90 -122h-122l-42 54l-42 -54h-122z" />
    <glyph glyph-name="uni1EA7" unicode="&#x1ea7;" horiz-adv-x="579" 
d="M445 489.5q75 -36.5 74 -147.5l-1 -237q-2 -120 -253 -120q-113 0 -174 41.5t-61 140.5q0 66 44 107.5t135 41.5q33 0 68.5 -9.5t62.5 -24.5v20q0 77 -105 77q-44 0 -89.5 -17t-71.5 -39v158q26 17 83.5 31t127.5 14q85 0 160 -36.5zM325 113.5q15 5.5 15 21.5v62
q-22 7 -51 7q-43 0 -61 -10.5t-18 -35.5q0 -19 16.5 -34.5t38.5 -15.5q45 0 60 5.5zM127 564l90 122h148l90 -122h-122l-42 54l-42 -54h-122zM49 638l-103 110h157l42 -110h-96z" />
    <glyph glyph-name="uni1EA9" unicode="&#x1ea9;" horiz-adv-x="579" 
d="M445 489.5q75 -36.5 74 -147.5l-1 -237q-2 -120 -253 -120q-113 0 -174 41.5t-61 140.5q0 66 44 107.5t135 41.5q33 0 68.5 -9.5t62.5 -24.5v20q0 77 -105 77q-44 0 -89.5 -17t-71.5 -39v158q26 17 83.5 31t127.5 14q85 0 160 -36.5zM325 113.5q15 5.5 15 21.5v62
q-22 7 -51 7q-43 0 -61 -10.5t-18 -35.5q0 -19 16.5 -34.5t38.5 -15.5q45 0 60 5.5zM107 573l90 122h148l90 -122h-122l-42 54l-42 -54h-122zM404 698q15 0 25.5 7t10.5 17q0 23 -40 23q-14 0 -31 -4v65q23 5 70 5q55 0 88 -20t33 -62q0 -31 -16 -49t-43 -18v-23h-97v59z
" />
    <glyph glyph-name="uni1EAB" unicode="&#x1eab;" horiz-adv-x="579" 
d="M445 489.5q75 -36.5 74 -147.5l-1 -237q-2 -120 -253 -120q-113 0 -174 41.5t-61 140.5q0 66 44 107.5t135 41.5q33 0 68.5 -9.5t62.5 -24.5v20q0 77 -105 77q-44 0 -89.5 -17t-71.5 -39v158q26 17 83.5 31t127.5 14q85 0 160 -36.5zM325 113.5q15 5.5 15 21.5v62
q-22 7 -51 7q-43 0 -61 -10.5t-18 -35.5q0 -19 16.5 -34.5t38.5 -15.5q45 0 60 5.5zM127 556l90 122h148l90 -122h-122l-42 54l-42 -54h-122zM87 724q0 40 16 75.5t45.5 56.5t68.5 21q25 0 46 -9.5t47 -27.5q20 -14 35 -21t30 -7q38 0 38 63h81q0 -47 -17.5 -81.5t-46 -52.5
t-60.5 -18q-39 0 -63 11t-52 31q-15 12 -24.5 17.5t-21.5 5.5q-23 0 -33 -19.5t-10 -44.5h-79z" />
    <glyph glyph-name="uni0201" unicode="&#x201;" horiz-adv-x="579" 
d="M445 489.5q75 -36.5 74 -147.5l-1 -237q-2 -120 -253 -120q-113 0 -174 41.5t-61 140.5q0 66 44 107.5t135 41.5q33 0 68.5 -9.5t62.5 -24.5v20q0 77 -105 77q-44 0 -89.5 -17t-71.5 -39v158q26 17 83.5 31t127.5 14q85 0 160 -36.5zM325 113.5q15 5.5 15 21.5v62
q-22 7 -51 7q-43 0 -61 -10.5t-18 -35.5q0 -19 16.5 -34.5t38.5 -15.5q45 0 60 5.5zM150 576l-123 127h177l42 -127h-96zM355 576l-123 127h177l42 -127h-96z" />
    <glyph glyph-name="adieresis" unicode="&#xe4;" horiz-adv-x="579" 
d="M445 489.5q75 -36.5 74 -147.5l-1 -237q-2 -120 -253 -120q-113 0 -174 41.5t-61 140.5q0 66 44 107.5t135 41.5q33 0 68.5 -9.5t62.5 -24.5v20q0 77 -105 77q-44 0 -89.5 -17t-71.5 -39v158q26 17 83.5 31t127.5 14q85 0 160 -36.5zM325 113.5q15 5.5 15 21.5v62
q-22 7 -51 7q-43 0 -61 -10.5t-18 -35.5q0 -19 16.5 -34.5t38.5 -15.5q45 0 60 5.5zM117 586v109h150v-109h-150zM316 586v109h150v-109h-150z" />
    <glyph glyph-name="uni1EA1" unicode="&#x1ea1;" horiz-adv-x="551" 
d="M445 489.5q75 -36.5 74 -147.5l-1 -237q-2 -120 -253 -120q-113 0 -174 41.5t-61 140.5q0 66 44 107.5t135 41.5q33 0 68.5 -9.5t62.5 -24.5v20q0 77 -105 77q-44 0 -89.5 -17t-71.5 -39v158q26 17 83.5 31t127.5 14q85 0 160 -36.5zM325 113.5q15 5.5 15 21.5v62
q-22 7 -51 7q-43 0 -61 -10.5t-18 -35.5q0 -19 16.5 -34.5t38.5 -15.5q45 0 60 5.5zM223 -159v109h120v-109h-120z" />
    <glyph glyph-name="agrave" unicode="&#xe0;" horiz-adv-x="579" 
d="M445 489.5q75 -36.5 74 -147.5l-1 -237q-2 -120 -253 -120q-113 0 -174 41.5t-61 140.5q0 66 44 107.5t135 41.5q33 0 68.5 -9.5t62.5 -24.5v20q0 77 -105 77q-44 0 -89.5 -17t-71.5 -39v158q26 17 83.5 31t127.5 14q85 0 160 -36.5zM325 113.5q15 5.5 15 21.5v62
q-22 7 -51 7q-43 0 -61 -10.5t-18 -35.5q0 -19 16.5 -34.5t38.5 -15.5q45 0 60 5.5zM236 576l-123 127h177l42 -127h-96z" />
    <glyph glyph-name="uni1EA3" unicode="&#x1ea3;" horiz-adv-x="579" 
d="M445 489.5q75 -36.5 74 -147.5l-1 -237q-2 -120 -253 -120q-113 0 -174 41.5t-61 140.5q0 66 44 107.5t135 41.5q33 0 68.5 -9.5t62.5 -24.5v20q0 77 -105 77q-44 0 -89.5 -17t-71.5 -39v158q26 17 83.5 31t127.5 14q85 0 160 -36.5zM325 113.5q15 5.5 15 21.5v62
q-22 7 -51 7q-43 0 -61 -10.5t-18 -35.5q0 -19 16.5 -34.5t38.5 -15.5q45 0 60 5.5zM245 623q15 0 25.5 7t10.5 17q0 23 -40 23q-14 0 -31 -4v65q23 5 70 5q55 0 88 -20t33 -62q0 -31 -16 -49t-43 -18v-23h-97v59z" />
    <glyph glyph-name="uni0203" unicode="&#x203;" horiz-adv-x="579" 
d="M445 489.5q75 -36.5 74 -147.5l-1 -237q-2 -120 -253 -120q-113 0 -174 41.5t-61 140.5q0 66 44 107.5t135 41.5q33 0 68.5 -9.5t62.5 -24.5v20q0 77 -105 77q-44 0 -89.5 -17t-71.5 -39v158q26 17 83.5 31t127.5 14q85 0 160 -36.5zM325 113.5q15 5.5 15 21.5v62
q-22 7 -51 7q-43 0 -61 -10.5t-18 -35.5q0 -19 16.5 -34.5t38.5 -15.5q45 0 60 5.5zM395.5 653.5q37.5 -38.5 43.5 -102.5h-97q-18 56 -61 56q-24 0 -39 -17t-22 -39h-96q11 66 46 103.5t111 37.5q77 0 114.5 -38.5z" />
    <glyph glyph-name="amacron" unicode="&#x101;" horiz-adv-x="579" 
d="M445 489.5q75 -36.5 74 -147.5l-1 -237q-2 -120 -253 -120q-113 0 -174 41.5t-61 140.5q0 66 44 107.5t135 41.5q33 0 68.5 -9.5t62.5 -24.5v20q0 77 -105 77q-44 0 -89.5 -17t-71.5 -39v158q26 17 83.5 31t127.5 14q85 0 160 -36.5zM325 113.5q15 5.5 15 21.5v62
q-22 7 -51 7q-43 0 -61 -10.5t-18 -35.5q0 -19 16.5 -34.5t38.5 -15.5q45 0 60 5.5zM128 572v112h294v-112h-294z" />
    <glyph glyph-name="aogonek" unicode="&#x105;" horiz-adv-x="579" 
d="M445 489.5q75 -36.5 74 -147.5l-1 -237q0 -57 -61 -89h1q-99 -38 -99 -74q0 -21 9 -28.5t26 -7.5q29 0 70 37v-95q-24 -12 -46 -19t-59 -7q-74 0 -108.5 24.5t-34.5 76.5q0 36 28 62q-103 4 -158.5 45.5t-55.5 136.5q0 66 44 107.5t135 41.5q33 0 68.5 -9.5t62.5 -24.5
v20q0 77 -105 77q-44 0 -89.5 -17t-71.5 -39v158q26 17 83.5 31t127.5 14q85 0 160 -36.5zM226.5 123.5q16.5 -15.5 38.5 -15.5q45 0 60 5.5t15 21.5v62q-22 7 -51 7q-43 0 -61 -10.5t-18 -35.5q0 -19 16.5 -34.5z" />
    <glyph glyph-name="aring" unicode="&#xe5;" horiz-adv-x="579" 
d="M445 489.5q75 -36.5 74 -147.5l-1 -237q-2 -120 -253 -120q-113 0 -174 41.5t-61 140.5q0 66 44 107.5t135 41.5q33 0 68.5 -9.5t62.5 -24.5v20q0 77 -105 77q-44 0 -89.5 -17t-71.5 -39v158q26 17 83.5 31t127.5 14q85 0 160 -36.5zM325 113.5q15 5.5 15 21.5v62
q-22 7 -51 7q-43 0 -61 -10.5t-18 -35.5q0 -19 16.5 -34.5t38.5 -15.5q45 0 60 5.5zM187.5 590q-33.5 25 -33.5 71q0 45 34 70.5t93 25.5q60 0 93.5 -25.5t33.5 -70.5q0 -46 -33.5 -71t-93.5 -25t-93.5 25zM316 636.5q10 6.5 10 24.5q0 17 -10.5 24t-34.5 7t-34.5 -7
t-10.5 -24q0 -18 10 -24.5t35 -6.5t35 6.5z" />
    <glyph glyph-name="aringacute" unicode="&#x1fb;" horiz-adv-x="579" 
d="M445 489.5q75 -36.5 74 -147.5l-1 -237q-2 -120 -253 -120q-113 0 -174 41.5t-61 140.5q0 66 44 107.5t135 41.5q33 0 68.5 -9.5t62.5 -24.5v20q0 77 -105 77q-44 0 -89.5 -17t-71.5 -39v158q26 17 83.5 31t127.5 14q85 0 160 -36.5zM325 113.5q15 5.5 15 21.5v62
q-22 7 -51 7q-43 0 -61 -10.5t-18 -35.5q0 -19 16.5 -34.5t38.5 -15.5q45 0 60 5.5zM187.5 590q-33.5 25 -33.5 71q0 45 34 70.5t93 25.5q60 0 93.5 -25.5t33.5 -70.5q0 -46 -33.5 -71t-93.5 -25t-93.5 25zM316 636.5q10 6.5 10 24.5q0 17 -10.5 24t-34.5 7t-34.5 -7
t-10.5 -24q0 -18 10 -24.5t35 -6.5t35 6.5zM225 784l42 127h177l-123 -127h-96z" />
    <glyph glyph-name="atilde" unicode="&#xe3;" horiz-adv-x="579" 
d="M445 489.5q75 -36.5 74 -147.5l-1 -237q-2 -120 -253 -120q-113 0 -174 41.5t-61 140.5q0 66 44 107.5t135 41.5q33 0 68.5 -9.5t62.5 -24.5v20q0 77 -105 77q-44 0 -89.5 -17t-71.5 -39v158q26 17 83.5 31t127.5 14q85 0 160 -36.5zM325 113.5q15 5.5 15 21.5v62
q-22 7 -51 7q-43 0 -61 -10.5t-18 -35.5q0 -19 16.5 -34.5t38.5 -15.5q45 0 60 5.5zM87 575q0 40 16 75.5t45.5 56.5t68.5 21q25 0 46 -9.5t47 -27.5q20 -14 35 -21t30 -7q38 0 38 63h81q0 -47 -17.5 -81.5t-46 -52.5t-60.5 -18q-39 0 -63 11t-52 31q-15 12 -24.5 17.5
t-21.5 5.5q-23 0 -33 -19.5t-10 -44.5h-79z" />
    <glyph glyph-name="ae" unicode="&#xe6;" horiz-adv-x="878" 
d="M790.5 445q58.5 -80 57.5 -241h-330q1 -42 32.5 -61t104.5 -19q33 0 72 14t66 31v-151q-36 -22 -81 -32.5t-106 -10.5q-55 0 -102 15.5t-83 42.5q-92 -57 -186 -57q-92 0 -148.5 42t-56.5 140q0 67 44.5 112.5t134.5 45.5q33 0 68.5 -9.5t62.5 -24.5v17q0 77 -105 77
q-44 0 -89.5 -17t-71.5 -39v161q26 17 83.5 31t127.5 14q105 0 166 -41q63 40 156 40q125 0 183.5 -80zM551 371q-21 -20 -28 -60h146q-6 44 -22.5 62t-48.5 18q-26 0 -47 -20zM227 114q17 -15 46 -15q53 0 84 11q-17 36 -17 72v15q-22 7 -51 7q-79 0 -79 -55q0 -20 17 -35z
" />
    <glyph glyph-name="aeacute" unicode="&#x1fd;" horiz-adv-x="878" 
d="M790.5 445q58.5 -80 57.5 -241h-330q1 -42 32.5 -61t104.5 -19q33 0 72 14t66 31v-151q-36 -22 -81 -32.5t-106 -10.5q-55 0 -102 15.5t-83 42.5q-92 -57 -186 -57q-92 0 -148.5 42t-56.5 140q0 67 44.5 112.5t134.5 45.5q33 0 68.5 -9.5t62.5 -24.5v17q0 77 -105 77
q-44 0 -89.5 -17t-71.5 -39v161q26 17 83.5 31t127.5 14q105 0 166 -41q63 40 156 40q125 0 183.5 -80zM551 371q-21 -20 -28 -60h146q-6 44 -22.5 62t-48.5 18q-26 0 -47 -20zM227 114q17 -15 46 -15q53 0 84 11q-17 36 -17 72v15q-22 7 -51 7q-79 0 -79 -55q0 -20 17 -35z
M383 566l42 127h177l-123 -127h-96z" />
    <glyph glyph-name="b" unicode="b" horiz-adv-x="615" 
d="M526 457.5q59 -68.5 59 -202.5q0 -140 -71 -205t-207 -65q-247 0 -247 146v555h178v-193q26 18 58.5 25.5t59.5 7.5q111 0 170 -68.5zM380 161.5q25 27.5 25 80.5q0 80 -28 111t-73 31q-16 0 -34.5 -4t-31.5 -11v-190q0 -24 17 -34.5t52 -10.5q48 0 73 27.5z" />
    <glyph glyph-name="c" unicode="c" horiz-adv-x="506" 
d="M166.5 17q-63.5 32 -100 91t-36.5 136q0 131 74 206t203 75q43 0 89 -9t78 -25v-153q-47 21 -76 31t-60 10q-56 0 -91.5 -27.5t-35.5 -82.5q0 -68 32 -101.5t105 -33.5q57 0 128 45v-151q-37 -22 -75.5 -32.5t-91.5 -10.5q-79 0 -142.5 32z" />
    <glyph glyph-name="cacute" unicode="&#x107;" horiz-adv-x="506" 
d="M166.5 17q-63.5 32 -100 91t-36.5 136q0 131 74 206t203 75q43 0 89 -9t78 -25v-153q-47 21 -76 31t-60 10q-56 0 -91.5 -27.5t-35.5 -82.5q0 -68 32 -101.5t105 -33.5q57 0 128 45v-151q-37 -22 -75.5 -32.5t-91.5 -10.5q-79 0 -142.5 32zM242 566l42 127h177l-123 -127
h-96z" />
    <glyph glyph-name="ccaron" unicode="&#x10d;" horiz-adv-x="506" 
d="M166.5 17q-63.5 32 -100 91t-36.5 136q0 131 74 206t203 75q43 0 89 -9t78 -25v-153q-47 21 -76 31t-60 10q-56 0 -91.5 -27.5t-35.5 -82.5q0 -68 32 -101.5t105 -33.5q57 0 128 45v-151q-37 -22 -75.5 -32.5t-91.5 -10.5q-79 0 -142.5 32zM219 584l-80 122h112l42 -54
l42 54h112l-70 -122h-158z" />
    <glyph glyph-name="ccedilla" unicode="&#xe7;" horiz-adv-x="506" 
d="M476 28q-53 -32 -114 -40l-45 -127h-159l90 129q-98 18 -158 86t-60 168q0 131 74 206t203 75q43 0 89 -9t78 -25v-153q-47 21 -76 31t-60 10q-56 0 -91.5 -27.5t-35.5 -82.5q0 -68 32 -101.5t105 -33.5q57 0 128 45v-151z" />
    <glyph glyph-name="uni1E09" unicode="&#x1e09;" horiz-adv-x="506" 
d="M461 693l-123 -127h-96l42 127h177zM476 28q-53 -32 -114 -40l-45 -127h-159l90 129q-98 18 -158 86t-60 168q0 131 74 206t203 75q43 0 89 -9t78 -25v-153q-47 21 -76 31t-60 10q-56 0 -91.5 -27.5t-35.5 -82.5q0 -68 32 -101.5t105 -33.5q57 0 128 45v-151z" />
    <glyph glyph-name="ccircumflex" unicode="&#x109;" horiz-adv-x="506" 
d="M166.5 17q-63.5 32 -100 91t-36.5 136q0 131 74 206t203 75q43 0 89 -9t78 -25v-153q-47 21 -76 31t-60 10q-56 0 -91.5 -27.5t-35.5 -82.5q0 -68 32 -101.5t105 -33.5q57 0 128 45v-151q-37 -22 -75.5 -32.5t-91.5 -10.5q-79 0 -142.5 32zM144 574l90 122h148l90 -122
h-122l-42 54l-42 -54h-122z" />
    <glyph glyph-name="cdotaccent" unicode="&#x10b;" horiz-adv-x="506" 
d="M166.5 17q-63.5 32 -100 91t-36.5 136q0 131 74 206t203 75q43 0 89 -9t78 -25v-153q-47 21 -76 31t-60 10q-56 0 -91.5 -27.5t-35.5 -82.5q0 -68 32 -101.5t105 -33.5q57 0 128 45v-151q-37 -22 -75.5 -32.5t-91.5 -10.5q-79 0 -142.5 32zM214 566v109h140v-109h-140z
" />
    <glyph glyph-name="d" unicode="d" horiz-adv-x="626" 
d="M566 716v-565q0 -52 -33.5 -89.5t-90.5 -57t-125 -19.5q-145 0 -216 62.5t-71 210.5q0 128 63 199.5t185 71.5q30 0 56 -3.5t52 -20.5v211h180zM386 370q-30 15 -55 15q-41 0 -66.5 -10.5t-39 -40t-13.5 -83.5q0 -60 27 -88t86 -28q61 0 61 36v199z" />
    <glyph glyph-name="eth" unicode="&#xf0;" horiz-adv-x="589" 
d="M479 596q71 -112 71 -287q0 -173 -61.5 -253.5t-190.5 -80.5q-135 0 -201.5 67t-66.5 210q0 130 52.5 201.5t144.5 71.5q89 0 134 -51q-16 51 -42 90l-116 -23l-25 96l60 11q-18 14 -70 45v7h207q16 -10 32 -23l122 22l30 -87zM347.5 138q17.5 21 24.5 67t7 126
q0 25 -1 36q-36 44 -80 44q-43 0 -65.5 -40.5t-22.5 -118.5q0 -76 21.5 -105.5t66.5 -29.5q32 0 49.5 21z" />
    <glyph glyph-name="dcaron" unicode="&#x10f;" horiz-adv-x="802" 
d="M566 716v-565q0 -52 -33.5 -89.5t-90.5 -57t-125 -19.5q-145 0 -216 62.5t-71 210.5q0 128 63 199.5t185 71.5q30 0 56 -3.5t52 -20.5v211h180zM386 370q-30 15 -55 15q-41 0 -66.5 -10.5t-39 -40t-13.5 -83.5q0 -60 27 -88t86 -28q61 0 61 36v199zM577 510l74 196h139
l-96 -196h-117z" />
    <glyph glyph-name="dcroat" unicode="&#x111;" horiz-adv-x="626" 
d="M622 545h-56v-394q0 -52 -33.5 -89.5t-90.5 -57t-125 -19.5q-145 0 -216 62.5t-71 210.5q0 128 63 199.5t185 71.5q30 0 56 -3.5t52 -20.5v40h-88v108h88v63h180v-63h56v-108zM386 370q-30 15 -55 15q-41 0 -66.5 -10.5t-39 -40t-13.5 -83.5q0 -60 27 -88t86 -28
q61 0 61 36v199z" />
    <glyph glyph-name="uni1E0F" unicode="&#x1e0f;" horiz-adv-x="626" 
d="M566 716v-565q0 -52 -33.5 -89.5t-90.5 -57t-125 -19.5q-145 0 -216 62.5t-71 210.5q0 128 63 199.5t185 71.5q30 0 56 -3.5t52 -20.5v211h180zM386 370q-30 15 -55 15q-41 0 -66.5 -10.5t-39 -40t-13.5 -83.5q0 -60 27 -88t86 -28q61 0 61 36v199zM176 -155v112h294
v-112h-294z" />
    <glyph glyph-name="uni01C6" unicode="&#x1c6;" horiz-adv-x="1134" 
d="M566 716v-565q0 -52 -33.5 -89.5t-90.5 -57t-125 -19.5q-145 0 -216 62.5t-71 210.5q0 128 63 199.5t185 71.5q30 0 56 -3.5t52 -20.5v211h180zM386 370q-30 15 -55 15q-41 0 -66.5 -10.5t-39 -40t-13.5 -83.5q0 -60 27 -88t86 -28q61 0 61 36v199zM1089 509v-139
l-193 -227h193v-143h-418v141l227 235h-222v133h413zM811 564l-80 122h112l42 -54l42 54h112l-70 -122h-158z" />
    <glyph glyph-name="e" unicode="e" horiz-adv-x="568" 
d="M480.5 448.5q58.5 -80.5 57.5 -244.5h-317q24 -70 127 -70q41 0 113 27l25 8v-151q-86 -33 -187 -33q-79 0 -140 32t-95 91t-34 136q0 135 69 210t198 75q125 0 183.5 -80.5zM241.5 374.5q-20.5 -20.5 -27.5 -63.5h145q-6 46 -22.5 65t-48.5 19q-26 0 -46.5 -20.5z" />
    <glyph glyph-name="eacute" unicode="&#xe9;" horiz-adv-x="568" 
d="M480.5 448.5q58.5 -80.5 57.5 -244.5h-317q24 -70 127 -70q41 0 113 27l25 8v-151q-86 -33 -187 -33q-79 0 -140 32t-95 91t-34 136q0 135 69 210t198 75q125 0 183.5 -80.5zM241.5 374.5q-20.5 -20.5 -27.5 -63.5h145q-6 46 -22.5 65t-48.5 19q-26 0 -46.5 -20.5z
M235 566l42 127h177l-123 -127h-96z" />
    <glyph glyph-name="ebreve" unicode="&#x115;" horiz-adv-x="568" 
d="M480.5 448.5q58.5 -80.5 57.5 -244.5h-317q24 -70 127 -70q41 0 113 27l25 8v-151q-86 -33 -187 -33q-79 0 -140 32t-95 91t-34 136q0 135 69 210t198 75q125 0 183.5 -80.5zM241.5 374.5q-20.5 -20.5 -27.5 -63.5h145q-6 46 -22.5 65t-48.5 19q-26 0 -46.5 -20.5z
M180 592.5q-35 37.5 -46 103.5h96q7 -22 22 -39t39 -17q43 0 61 56h97q-6 -64 -43.5 -102.5t-114.5 -38.5q-76 0 -111 37.5z" />
    <glyph glyph-name="ecaron" unicode="&#x11b;" horiz-adv-x="568" 
d="M480.5 448.5q58.5 -80.5 57.5 -244.5h-317q24 -70 127 -70q41 0 113 27l25 8v-151q-86 -33 -187 -33q-79 0 -140 32t-95 91t-34 136q0 135 69 210t198 75q125 0 183.5 -80.5zM241.5 374.5q-20.5 -20.5 -27.5 -63.5h145q-6 46 -22.5 65t-48.5 19q-26 0 -46.5 -20.5z
M212 584l-80 122h112l42 -54l42 54h112l-70 -122h-158z" />
    <glyph glyph-name="uni1E1D" unicode="&#x1e1d;" horiz-adv-x="568" 
d="M180 592.5q-35 37.5 -46 103.5h96q7 -22 22 -39t39 -17q43 0 61 56h97q-6 -64 -43.5 -102.5t-114.5 -38.5q-76 0 -111 37.5zM480.5 448.5q58.5 -80.5 57.5 -244.5h-317q24 -70 127 -70q41 0 113 27l25 8v-151q-38 -15 -79 -23l-47 -134h-159l86 124q-76 2 -134 35
t-90.5 91t-32.5 133q0 135 69 210t198 75q125 0 183.5 -80.5zM241.5 374.5q-20.5 -20.5 -27.5 -63.5h145q-6 46 -22.5 65t-48.5 19q-26 0 -46.5 -20.5z" />
    <glyph glyph-name="ecircumflex" unicode="&#xea;" horiz-adv-x="568" 
d="M480.5 448.5q58.5 -80.5 57.5 -244.5h-317q24 -70 127 -70q41 0 113 27l25 8v-151q-86 -33 -187 -33q-79 0 -140 32t-95 91t-34 136q0 135 69 210t198 75q125 0 183.5 -80.5zM241.5 374.5q-20.5 -20.5 -27.5 -63.5h145q-6 46 -22.5 65t-48.5 19q-26 0 -46.5 -20.5z
M137 574l90 122h148l90 -122h-122l-42 54l-42 -54h-122z" />
    <glyph glyph-name="uni1EBF" unicode="&#x1ebf;" horiz-adv-x="568" 
d="M480.5 448.5q58.5 -80.5 57.5 -244.5h-317q24 -70 127 -70q41 0 113 27l25 8v-151q-86 -33 -187 -33q-79 0 -140 32t-95 91t-34 136q0 135 69 210t198 75q125 0 183.5 -80.5zM241.5 374.5q-20.5 -20.5 -27.5 -63.5h145q-6 46 -22.5 65t-48.5 19q-26 0 -46.5 -20.5z
M128 554l90 122h148l90 -122h-122l-42 54l-42 -54h-122zM426 628l28 112h191l-133 -112h-86z" />
    <glyph glyph-name="uni1EC7" unicode="&#x1ec7;" horiz-adv-x="568" 
d="M480.5 448.5q58.5 -80.5 57.5 -244.5h-317q24 -70 127 -70q41 0 113 27l25 8v-151q-86 -33 -187 -33q-79 0 -140 32t-95 91t-34 136q0 135 69 210t198 75q125 0 183.5 -80.5zM241.5 374.5q-20.5 -20.5 -27.5 -63.5h145q-6 46 -22.5 65t-48.5 19q-26 0 -46.5 -20.5z
M137 574l90 122h148l90 -122h-122l-42 54l-42 -54h-122zM241 -159v109h120v-109h-120z" />
    <glyph glyph-name="uni1EC1" unicode="&#x1ec1;" horiz-adv-x="568" 
d="M480.5 448.5q58.5 -80.5 57.5 -244.5h-317q24 -70 127 -70q41 0 113 27l25 8v-151q-86 -33 -187 -33q-79 0 -140 32t-95 91t-34 136q0 135 69 210t198 75q125 0 183.5 -80.5zM241.5 374.5q-20.5 -20.5 -27.5 -63.5h145q-6 46 -22.5 65t-48.5 19q-26 0 -46.5 -20.5z
M137 554l90 122h148l90 -122h-122l-42 54l-42 -54h-122zM59 628l-103 110h157l42 -110h-96z" />
    <glyph glyph-name="uni1EC3" unicode="&#x1ec3;" horiz-adv-x="568" 
d="M480.5 448.5q58.5 -80.5 57.5 -244.5h-317q24 -70 127 -70q41 0 113 27l25 8v-151q-86 -33 -187 -33q-79 0 -140 32t-95 91t-34 136q0 135 69 210t198 75q125 0 183.5 -80.5zM241.5 374.5q-20.5 -20.5 -27.5 -63.5h145q-6 46 -22.5 65t-48.5 19q-26 0 -46.5 -20.5z
M117 563l90 122h148l90 -122h-122l-42 54l-42 -54h-122zM414 688q15 0 25.5 7t10.5 17q0 23 -40 23q-14 0 -31 -4v65q23 5 70 5q55 0 88 -20t33 -62q0 -31 -16 -49t-43 -18v-23h-97v59z" />
    <glyph glyph-name="uni1EC5" unicode="&#x1ec5;" horiz-adv-x="568" 
d="M480.5 448.5q58.5 -80.5 57.5 -244.5h-317q24 -70 127 -70q41 0 113 27l25 8v-151q-86 -33 -187 -33q-79 0 -140 32t-95 91t-34 136q0 135 69 210t198 75q125 0 183.5 -80.5zM241.5 374.5q-20.5 -20.5 -27.5 -63.5h145q-6 46 -22.5 65t-48.5 19q-26 0 -46.5 -20.5z
M137 546l90 122h148l90 -122h-122l-42 54l-42 -54h-122zM97 714q0 40 16 75.5t45.5 56.5t68.5 21q25 0 46 -9.5t47 -27.5q20 -14 35 -21t30 -7q38 0 38 63h81q0 -47 -17.5 -81.5t-46 -52.5t-60.5 -18q-39 0 -63 11t-52 31q-15 12 -24.5 17.5t-21.5 5.5q-23 0 -33 -19.5
t-10 -44.5h-79z" />
    <glyph glyph-name="uni0205" unicode="&#x205;" horiz-adv-x="568" 
d="M480.5 448.5q58.5 -80.5 57.5 -244.5h-317q24 -70 127 -70q41 0 113 27l25 8v-151q-86 -33 -187 -33q-79 0 -140 32t-95 91t-34 136q0 135 69 210t198 75q125 0 183.5 -80.5zM241.5 374.5q-20.5 -20.5 -27.5 -63.5h145q-6 46 -22.5 65t-48.5 19q-26 0 -46.5 -20.5z
M160 566l-123 127h177l42 -127h-96zM365 566l-123 127h177l42 -127h-96z" />
    <glyph glyph-name="edieresis" unicode="&#xeb;" horiz-adv-x="568" 
d="M480.5 448.5q58.5 -80.5 57.5 -244.5h-317q24 -70 127 -70q41 0 113 27l25 8v-151q-86 -33 -187 -33q-79 0 -140 32t-95 91t-34 136q0 135 69 210t198 75q125 0 183.5 -80.5zM241.5 374.5q-20.5 -20.5 -27.5 -63.5h145q-6 46 -22.5 65t-48.5 19q-26 0 -46.5 -20.5z
M127 576v109h150v-109h-150zM326 576v109h150v-109h-150z" />
    <glyph glyph-name="edotaccent" unicode="&#x117;" horiz-adv-x="568" 
d="M480.5 448.5q58.5 -80.5 57.5 -244.5h-317q24 -70 127 -70q41 0 113 27l25 8v-151q-86 -33 -187 -33q-79 0 -140 32t-95 91t-34 136q0 135 69 210t198 75q125 0 183.5 -80.5zM241.5 374.5q-20.5 -20.5 -27.5 -63.5h145q-6 46 -22.5 65t-48.5 19q-26 0 -46.5 -20.5z
M207 566v109h140v-109h-140z" />
    <glyph glyph-name="uni1EB9" unicode="&#x1eb9;" horiz-adv-x="568" 
d="M480.5 448.5q58.5 -80.5 57.5 -244.5h-317q24 -70 127 -70q41 0 113 27l25 8v-151q-86 -33 -187 -33q-79 0 -140 32t-95 91t-34 136q0 135 69 210t198 75q125 0 183.5 -80.5zM241.5 374.5q-20.5 -20.5 -27.5 -63.5h145q-6 46 -22.5 65t-48.5 19q-26 0 -46.5 -20.5z
M241 -159v109h120v-109h-120z" />
    <glyph glyph-name="egrave" unicode="&#xe8;" horiz-adv-x="568" 
d="M480.5 448.5q58.5 -80.5 57.5 -244.5h-317q24 -70 127 -70q41 0 113 27l25 8v-151q-86 -33 -187 -33q-79 0 -140 32t-95 91t-34 136q0 135 69 210t198 75q125 0 183.5 -80.5zM241.5 374.5q-20.5 -20.5 -27.5 -63.5h145q-6 46 -22.5 65t-48.5 19q-26 0 -46.5 -20.5z
M246 566l-123 127h177l42 -127h-96z" />
    <glyph glyph-name="uni1EBB" unicode="&#x1ebb;" horiz-adv-x="568" 
d="M480.5 448.5q58.5 -80.5 57.5 -244.5h-317q24 -70 127 -70q41 0 113 27l25 8v-151q-86 -33 -187 -33q-79 0 -140 32t-95 91t-34 136q0 135 69 210t198 75q125 0 183.5 -80.5zM241.5 374.5q-20.5 -20.5 -27.5 -63.5h145q-6 46 -22.5 65t-48.5 19q-26 0 -46.5 -20.5z
M255 613q15 0 25.5 7t10.5 17q0 23 -40 23q-14 0 -31 -4v65q23 5 70 5q55 0 88 -20t33 -62q0 -31 -16 -49t-43 -18v-23h-97v59z" />
    <glyph glyph-name="uni0207" unicode="&#x207;" horiz-adv-x="568" 
d="M480.5 448.5q58.5 -80.5 57.5 -244.5h-317q24 -70 127 -70q41 0 113 27l25 8v-151q-86 -33 -187 -33q-79 0 -140 32t-95 91t-34 136q0 135 69 210t198 75q125 0 183.5 -80.5zM241.5 374.5q-20.5 -20.5 -27.5 -63.5h145q-6 46 -22.5 65t-48.5 19q-26 0 -46.5 -20.5z
M405.5 643.5q37.5 -38.5 43.5 -102.5h-97q-18 56 -61 56q-24 0 -39 -17t-22 -39h-96q11 66 46 103.5t111 37.5q77 0 114.5 -38.5z" />
    <glyph glyph-name="emacron" unicode="&#x113;" horiz-adv-x="568" 
d="M480.5 448.5q58.5 -80.5 57.5 -244.5h-317q24 -70 127 -70q41 0 113 27l25 8v-151q-86 -33 -187 -33q-79 0 -140 32t-95 91t-34 136q0 135 69 210t198 75q125 0 183.5 -80.5zM241.5 374.5q-20.5 -20.5 -27.5 -63.5h145q-6 46 -22.5 65t-48.5 19q-26 0 -46.5 -20.5z
M138 562v112h294v-112h-294z" />
    <glyph glyph-name="uni1E17" unicode="&#x1e17;" horiz-adv-x="568" 
d="M480.5 448.5q58.5 -80.5 57.5 -244.5h-317q24 -70 127 -70q41 0 113 27l25 8v-151q-86 -33 -187 -33q-79 0 -140 32t-95 91t-34 136q0 135 69 210t198 75q125 0 183.5 -80.5zM241.5 374.5q-20.5 -20.5 -27.5 -63.5h145q-6 46 -22.5 65t-48.5 19q-26 0 -46.5 -20.5z
M138 562v112h294v-112h-294zM235 711l42 127h177l-123 -127h-96z" />
    <glyph glyph-name="uni1E15" unicode="&#x1e15;" horiz-adv-x="568" 
d="M480.5 448.5q58.5 -80.5 57.5 -244.5h-317q24 -70 127 -70q41 0 113 27l25 8v-151q-86 -33 -187 -33q-79 0 -140 32t-95 91t-34 136q0 135 69 210t198 75q125 0 183.5 -80.5zM241.5 374.5q-20.5 -20.5 -27.5 -63.5h145q-6 46 -22.5 65t-48.5 19q-26 0 -46.5 -20.5z
M138 562v112h294v-112h-294zM246 711l-123 127h177l42 -127h-96z" />
    <glyph glyph-name="eogonek" unicode="&#x119;" horiz-adv-x="568" 
d="M480.5 448.5q58.5 -80.5 57.5 -244.5h-317q24 -70 127 -70q41 0 113 27l25 8v-151l-25 -9l4 -1q-99 -38 -99 -74q0 -21 9 -28.5t26 -7.5q29 0 70 37v-95q-24 -12 -46 -19t-59 -7q-74 0 -108.5 24.5t-34.5 76.5q0 41 39 72q-105 11 -168.5 80.5t-63.5 176.5q0 135 69 210
t198 75q125 0 183.5 -80.5zM241.5 374.5q-20.5 -20.5 -27.5 -63.5h145q-6 46 -22.5 65t-48.5 19q-26 0 -46.5 -20.5z" />
    <glyph glyph-name="uni1EBD" unicode="&#x1ebd;" horiz-adv-x="568" 
d="M480.5 448.5q58.5 -80.5 57.5 -244.5h-317q24 -70 127 -70q41 0 113 27l25 8v-151q-86 -33 -187 -33q-79 0 -140 32t-95 91t-34 136q0 135 69 210t198 75q125 0 183.5 -80.5zM241.5 374.5q-20.5 -20.5 -27.5 -63.5h145q-6 46 -22.5 65t-48.5 19q-26 0 -46.5 -20.5z
M97 565q0 40 16 75.5t45.5 56.5t68.5 21q25 0 46 -9.5t47 -27.5q20 -14 35 -21t30 -7q38 0 38 63h81q0 -47 -17.5 -81.5t-46 -52.5t-60.5 -18q-39 0 -63 11t-52 31q-15 12 -24.5 17.5t-21.5 5.5q-23 0 -33 -19.5t-10 -44.5h-79z" />
    <glyph glyph-name="uni0259" unicode="&#x259;" horiz-adv-x="568" 
d="M409 482q61 -32 95 -91t34 -136q0 -135 -69 -210t-198 -75q-125 0 -183.5 80.5t-57.5 244.5h317q-24 70 -127 70q-41 0 -113 -27l-25 -8v151q86 33 187 33q79 0 140 -32zM326.5 124.5q20.5 20.5 27.5 63.5h-145q6 -46 22.5 -65t48.5 -19q26 0 46.5 20.5z" />
    <glyph glyph-name="f" unicode="f" horiz-adv-x="402" 
d="M94 374h-69v135h71v5q1 115 52 163.5t155 48.5q17 0 39 -3.5t35 -7.5v-161q-14 16 -25.5 23.5t-31.5 7.5q-21 0 -31.5 -12.5t-10.5 -32.5v-31h99v-135h-101v-374h-182v374z" />
    <glyph glyph-name="g" unicode="g" horiz-adv-x="603" 
d="M496 488q57 -38 57 -104v-384q0 -119 -74.5 -176t-201.5 -57q-75 0 -128 9.5t-78 26.5v159q27 -15 87 -31t114 -16t78.5 24t24.5 71v20q-21 -22 -51 -33.5t-74 -11.5q-220 17 -220 253q0 109 34 172t100.5 89.5t170.5 26.5t161 -38zM375 133v208q0 44 -66 44
q-50 0 -74.5 -35t-24.5 -100q0 -61 28 -97.5t67 -36.5q41 0 70 17z" />
    <glyph glyph-name="gbreve" unicode="&#x11f;" horiz-adv-x="603" 
d="M496 488q57 -38 57 -104v-384q0 -119 -74.5 -176t-201.5 -57q-75 0 -128 9.5t-78 26.5v159q27 -15 87 -31t114 -16t78.5 24t24.5 71v20q-21 -22 -51 -33.5t-74 -11.5q-220 17 -220 253q0 109 34 172t100.5 89.5t170.5 26.5t161 -38zM375 133v208q0 44 -66 44
q-50 0 -74.5 -35t-24.5 -100q0 -61 28 -97.5t67 -36.5q41 0 70 17zM222 602.5q-35 37.5 -46 103.5h96q7 -22 22 -39t39 -17q43 0 61 56h97q-6 -64 -43.5 -102.5t-114.5 -38.5q-76 0 -111 37.5z" />
    <glyph glyph-name="gcaron" unicode="&#x1e7;" horiz-adv-x="603" 
d="M496 488q57 -38 57 -104v-384q0 -119 -74.5 -176t-201.5 -57q-75 0 -128 9.5t-78 26.5v159q27 -15 87 -31t114 -16t78.5 24t24.5 71v20q-21 -22 -51 -33.5t-74 -11.5q-220 17 -220 253q0 109 34 172t100.5 89.5t170.5 26.5t161 -38zM375 133v208q0 44 -66 44
q-50 0 -74.5 -35t-24.5 -100q0 -61 28 -97.5t67 -36.5q41 0 70 17zM254 594l-80 122h112l42 -54l42 54h112l-70 -122h-158z" />
    <glyph glyph-name="gcircumflex" unicode="&#x11d;" horiz-adv-x="603" 
d="M496 488q57 -38 57 -104v-384q0 -119 -74.5 -176t-201.5 -57q-75 0 -128 9.5t-78 26.5v159q27 -15 87 -31t114 -16t78.5 24t24.5 71v20q-21 -22 -51 -33.5t-74 -11.5q-220 17 -220 253q0 109 34 172t100.5 89.5t170.5 26.5t161 -38zM375 133v208q0 44 -66 44
q-50 0 -74.5 -35t-24.5 -100q0 -61 28 -97.5t67 -36.5q41 0 70 17zM179 584l90 122h148l90 -122h-122l-42 54l-42 -54h-122z" />
    <glyph glyph-name="gcommaaccent" unicode="&#x123;" horiz-adv-x="603" 
d="M257 579q-2 63 43.5 103.5t129.5 40.5v-75q-22 -4 -30.5 -19t-7.5 -50h-135zM496 488q57 -38 57 -104v-384q0 -119 -74.5 -176t-201.5 -57q-75 0 -128 9.5t-78 26.5v159q27 -15 87 -31t114 -16t78.5 24t24.5 71v20q-21 -22 -51 -33.5t-74 -11.5q-220 17 -220 253
q0 109 34 172t100.5 89.5t170.5 26.5t161 -38zM375 133v208q0 44 -66 44q-50 0 -74.5 -35t-24.5 -100q0 -61 28 -97.5t67 -36.5q41 0 70 17z" />
    <glyph glyph-name="gdotaccent" unicode="&#x121;" horiz-adv-x="603" 
d="M496 488q57 -38 57 -104v-384q0 -119 -74.5 -176t-201.5 -57q-75 0 -128 9.5t-78 26.5v159q27 -15 87 -31t114 -16t78.5 24t24.5 71v20q-21 -22 -51 -33.5t-74 -11.5q-220 17 -220 253q0 109 34 172t100.5 89.5t170.5 26.5t161 -38zM375 133v208q0 44 -66 44
q-50 0 -74.5 -35t-24.5 -100q0 -61 28 -97.5t67 -36.5q41 0 70 17zM249 576v109h140v-109h-140z" />
    <glyph glyph-name="uni1E21" unicode="&#x1e21;" horiz-adv-x="603" 
d="M496 488q57 -38 57 -104v-384q0 -119 -74.5 -176t-201.5 -57q-75 0 -128 9.5t-78 26.5v159q27 -15 87 -31t114 -16t78.5 24t24.5 71v20q-21 -22 -51 -33.5t-74 -11.5q-220 17 -220 253q0 109 34 172t100.5 89.5t170.5 26.5t161 -38zM375 133v208q0 44 -66 44
q-50 0 -74.5 -35t-24.5 -100q0 -61 28 -97.5t67 -36.5q41 0 70 17zM180 572v112h294v-112h-294z" />
    <glyph glyph-name="h" unicode="h" horiz-adv-x="627" 
d="M518 485q49 -40 49 -138v-347h-182v303q0 39 -21 56.5t-62 17.5q-19 0 -37.5 -5.5t-21.5 -10.5l-3 -361h-180v700h183v-208q68 33 140 33q86 0 135 -40z" />
    <glyph glyph-name="hbar" unicode="&#x127;" horiz-adv-x="627" 
d="M518 485q49 -40 49 -138v-347h-182v303q0 39 -21 56.5t-62 17.5q-19 0 -37.5 -5.5t-21.5 -10.5l-3 -361h-180v537h-60v108h60v55h183v-55h81v-108h-81v-45q68 33 140 33q86 0 135 -40z" />
    <glyph glyph-name="uni1E2B" unicode="&#x1e2b;" horiz-adv-x="627" 
d="M518 485q49 -40 49 -138v-347h-182v303q0 39 -21 56.5t-62 17.5q-19 0 -37.5 -5.5t-21.5 -10.5l-3 -361h-180v700h183v-208q68 33 140 33q86 0 135 -40zM196 -142.5q-35 37.5 -46 103.5h96q7 -22 22 -39t39 -17q43 0 61 56h97q-6 -64 -43.5 -102.5t-114.5 -38.5
q-76 0 -111 37.5z" />
    <glyph glyph-name="hcircumflex" unicode="&#x125;" horiz-adv-x="627" 
d="M518 485q49 -40 49 -138v-347h-182v303q0 39 -21 56.5t-62 17.5q-19 0 -37.5 -5.5t-21.5 -10.5l-3 -361h-180v700h183v-208q68 33 140 33q86 0 135 -40zM-17 735l90 122h148l90 -122h-122l-42 54l-42 -54h-122z" />
    <glyph glyph-name="i" unicode="i" horiz-adv-x="306" 
d="M60 569v131h186v-131h-186zM62 0v499h182l2 -499h-184z" />
    <glyph glyph-name="dotlessi" unicode="&#x131;" horiz-adv-x="304" 
d="M60 0v499h182l2 -499h-184z" />
    <glyph glyph-name="iacute" unicode="&#xed;" horiz-adv-x="359" 
d="M140 556l62 117h117l-93 -117h-86zM96 0v499h172v-499h-172z" />
    <glyph glyph-name="ibreve" unicode="&#x12d;" horiz-adv-x="304" 
d="M60 0v499h182l2 -499h-184zM41 572.5q-35 37.5 -46 103.5h96q7 -22 22 -39t39 -17q43 0 61 56h97q-6 -64 -43.5 -102.5t-114.5 -38.5q-76 0 -111 37.5z" />
    <glyph glyph-name="uni01D0" unicode="&#x1d0;" horiz-adv-x="304" 
d="M60 0v499h182l2 -499h-184zM73 564l-80 122h112l42 -54l42 54h112l-70 -122h-158z" />
    <glyph glyph-name="icircumflex" unicode="&#xee;" horiz-adv-x="359" 
d="M38 556l120 122h48l120 -122h-102l-42 44l-42 -44h-102zM96 0v499h172v-499h-172z" />
    <glyph glyph-name="uni0209" unicode="&#x209;" horiz-adv-x="304" 
d="M60 0v499h182l2 -499h-184zM21 546l-123 127h177l42 -127h-96zM226 546l-123 127h177l42 -127h-96z" />
    <glyph glyph-name="idieresis" unicode="&#xef;" horiz-adv-x="359" 
d="M37 556v109h120v-109h-120zM207 556v109h120v-109h-120zM96 0v499h172v-499h-172z" />
    <glyph glyph-name="uni1E2F" unicode="&#x1e2f;" horiz-adv-x="304" 
d="M60 0v499h182l2 -499h-184zM-12 556v109h150v-109h-150zM187 556v109h150v-109h-150zM96 712l42 127h177l-123 -127h-96z" />
    <glyph glyph-name="i.loclTRK" horiz-adv-x="306" 
d="M60 569v131h186v-131h-186z" />
    <glyph glyph-name="uni1ECB" unicode="&#x1ecb;" horiz-adv-x="359" 
d="M94 556v131h176v-131h-176zM96 0v499h172v-499h-172zM122 -159v109h120v-109h-120z" />
    <glyph glyph-name="igrave" unicode="&#xec;" horiz-adv-x="359" 
d="M138 563l-93 117h117l62 -117h-86zM96 0v499h172v-499h-172z" />
    <glyph glyph-name="uni1EC9" unicode="&#x1ec9;" horiz-adv-x="359" 
d="M153 615q26 0 26 16q0 21 -30 21q-14 0 -31 -4v53q9 2 23 3.5t27 1.5q40 0 66 -19t26 -53q0 -21 -11 -33.5t-24.5 -17.5t-13.5 -4v-23h-58v59zM96 0v499h172v-499h-172z" />
    <glyph glyph-name="uni020B" unicode="&#x20b;" horiz-adv-x="304" 
d="M60 0v499h182l2 -499h-184zM266.5 623.5q37.5 -38.5 43.5 -102.5h-97q-18 56 -61 56q-24 0 -39 -17t-22 -39h-96q11 66 46 103.5t111 37.5q77 0 114.5 -38.5z" />
    <glyph glyph-name="ij" unicode="&#x133;" horiz-adv-x="625" 
d="M60 569v131h186v-131h-186zM62 0v499h182l2 -499h-184zM379 579v131h186v-131h-186zM311 -49q12 -2 19 -2q23 0 37 14.5t14 41.5v504h182l2 -502q0 -111 -68.5 -155.5t-185.5 -44.5v144z" />
    <glyph glyph-name="imacron" unicode="&#x12b;" horiz-adv-x="359" 
d="M65 556v88h234v-88h-234zM96 0v499h172v-499h-172z" />
    <glyph glyph-name="iogonek" unicode="&#x12f;" horiz-adv-x="306" 
d="M246 700v-131h-186v131h186zM253 -72v-95q-24 -12 -46 -19t-59 -7q-74 0 -108.5 24.5t-34.5 76.5q0 53 68 92h-11v499h182l2 -498h1h-1v-1h-2q-96 -38 -96 -73q0 -21 9 -28.5t26 -7.5q29 0 70 37z" />
    <glyph glyph-name="itilde" unicode="&#x129;" horiz-adv-x="304" 
d="M60 0v499h182l2 -499h-184zM-42 545q0 40 16 75.5t45.5 56.5t68.5 21q25 0 46 -9.5t47 -27.5q20 -14 35 -21t30 -7q38 0 38 63h81q0 -47 -17.5 -81.5t-46 -52.5t-60.5 -18q-39 0 -63 11t-52 31q-15 12 -24.5 17.5t-21.5 5.5q-23 0 -33 -19.5t-10 -44.5h-79z" />
    <glyph glyph-name="j" unicode="j" horiz-adv-x="319" 
d="M73 579v131h186v-131h-186zM5 -49q12 -2 19 -2q23 0 37 14.5t14 41.5v504h182l2 -502q0 -111 -68.5 -155.5t-185.5 -44.5v144z" />
    <glyph glyph-name="uni0237" unicode="&#x237;" horiz-adv-x="330" 
d="M3 -69q82 0 82 61v507h172v-492q0 -111 -68.5 -155.5t-185.5 -44.5v124z" />
    <glyph glyph-name="jcircumflex" unicode="&#x135;" horiz-adv-x="324" 
d="M27 556l120 122h48l120 -122h-102l-42 44l-42 -44h-102zM3 -69q82 0 82 61v507h172v-492q0 -111 -68.5 -155.5t-185.5 -44.5v124z" />
    <glyph glyph-name="k" unicode="k" horiz-adv-x="621" 
d="M596 0h-228l-127 196l-1 -196h-180v700h183l-2 -374l133 183h220l-197 -222z" />
    <glyph glyph-name="kcommaaccent" unicode="&#x137;" horiz-adv-x="644" 
d="M87 0v686h172v-308l105 121h220l-203 -220l225 -279h-208l-122 161l-17 -18v-143h-172zM246 -129q22 4 30.5 23t7.5 56h95q1 -39 -16.5 -72.5t-48 -52.5t-68.5 -19v65z" />
    <glyph glyph-name="kgreenlandic" unicode="&#x138;" horiz-adv-x="644" 
d="M87 0v499h172v-121l105 121h220l-203 -220l225 -279h-208l-122 161l-17 -18v-143h-172z" />
    <glyph glyph-name="l" unicode="l" horiz-adv-x="300" 
d="M240 0h-180v700h180v-700z" />
    <glyph glyph-name="lacute" unicode="&#x13a;" horiz-adv-x="300" 
d="M240 0h-180v700h180v-700zM102 714l28 112h191l-133 -112h-86z" />
    <glyph glyph-name="lcaron" unicode="&#x13e;" horiz-adv-x="417" 
d="M101 0v689h172v-689h-172zM326 610q22 4 30.5 23t7.5 56h95q1 -39 -16.5 -72.5t-48 -52.5t-68.5 -19v65z" />
    <glyph glyph-name="lcommaaccent" unicode="&#x13c;" horiz-adv-x="300" 
d="M240 0h-180v700h180v-700zM53 -119q22 4 30.5 19t7.5 50h135q2 -63 -43.5 -103.5t-129.5 -40.5v75z" />
    <glyph glyph-name="ldot" unicode="&#x140;" horiz-adv-x="418" 
d="M240 0h-180v700h180v-700zM79 198v138h144v-138h-144z" />
    <glyph glyph-name="uni1E37" unicode="&#x1e37;" horiz-adv-x="300" 
d="M240 0h-180v700h180v-700zM90 -159v109h120v-109h-120z" />
    <glyph glyph-name="uni01C9" unicode="&#x1c9;" horiz-adv-x="619" 
d="M240 0h-180v700h180v-700zM373 579v131h186v-131h-186zM305 -49q12 -2 19 -2q23 0 37 14.5t14 41.5v504h182l2 -502q0 -111 -68.5 -155.5t-185.5 -44.5v144z" />
    <glyph glyph-name="uni1E3B" unicode="&#x1e3b;" horiz-adv-x="300" 
d="M240 0h-180v700h180v-700zM2 -155v112h294v-112h-294z" />
    <glyph glyph-name="lslash" unicode="&#x142;" horiz-adv-x="431" 
d="M116 0v216l-98 -54v122l98 54v351h172v-257l130 72v-122l-130 -72v-310h-172z" />
    <glyph glyph-name="m" unicode="m" horiz-adv-x="930" 
d="M817 486q53 -39 53 -139v-347h-182v303q0 39 -21 56.5t-62 17.5q-18 0 -32 -5t-17 -11v-14v-347h-182v303q0 39 -21 56.5t-62 17.5q-18 0 -32 -5t-17 -11v-361h-182v465q35 19 127 39.5t157 20.5q102 0 151 -33q89 33 163 33q106 0 159 -39z" />
    <glyph glyph-name="uni1E43" unicode="&#x1e43;" horiz-adv-x="930" 
d="M817 486q53 -39 53 -139v-347h-182v303q0 39 -21 56.5t-62 17.5q-18 0 -32 -5t-17 -11v-14v-347h-182v303q0 39 -21 56.5t-62 17.5q-18 0 -32 -5t-17 -11v-361h-182v465q35 19 127 39.5t157 20.5q102 0 151 -33q89 33 163 33q106 0 159 -39zM405 -159v109h120v-109h-120z
" />
    <glyph glyph-name="n" unicode="n" horiz-adv-x="626" 
d="M187 504.5q92 20.5 157 20.5q108 0 165 -39.5t57 -138.5v-347h-182v303q0 39 -21 56.5t-62 17.5q-19 0 -37.5 -5.5t-21.5 -10.5v-361h-182v465q35 19 127 39.5z" />
    <glyph glyph-name="nacute" unicode="&#x144;" horiz-adv-x="626" 
d="M187 504.5q92 20.5 157 20.5q108 0 165 -39.5t57 -138.5v-347h-182v303q0 39 -21 56.5t-62 17.5q-19 0 -37.5 -5.5t-21.5 -10.5v-361h-182v465q35 19 127 39.5zM255 566l42 127h177l-123 -127h-96z" />
    <glyph glyph-name="napostrophe" unicode="&#x149;" horiz-adv-x="647" 
d="M35 585q22 4 30.5 23t7.5 56h95q1 -39 -16.5 -72.5t-48 -52.5t-68.5 -19v65zM82 446q36 18 99.5 39t148.5 21q106 0 168 -56.5t62 -155.5v-294h-172v321q0 24 -16 39.5t-68 15.5q-27 0 -50 -6v-370h-172v446z" />
    <glyph glyph-name="ncaron" unicode="&#x148;" horiz-adv-x="626" 
d="M187 504.5q92 20.5 157 20.5q108 0 165 -39.5t57 -138.5v-347h-182v303q0 39 -21 56.5t-62 17.5q-19 0 -37.5 -5.5t-21.5 -10.5v-361h-182v465q35 19 127 39.5zM232 584l-80 122h112l42 -54l42 54h112l-70 -122h-158z" />
    <glyph glyph-name="ncommaaccent" unicode="&#x146;" horiz-adv-x="626" 
d="M187 504.5q92 20.5 157 20.5q108 0 165 -39.5t57 -138.5v-347h-182v303q0 39 -21 56.5t-62 17.5q-19 0 -37.5 -5.5t-21.5 -10.5v-361h-182v465q35 19 127 39.5zM214 -119q22 4 30.5 19t7.5 50h135q2 -63 -43.5 -103.5t-129.5 -40.5v75z" />
    <glyph glyph-name="uni1E45" unicode="&#x1e45;" horiz-adv-x="626" 
d="M187 504.5q92 20.5 157 20.5q108 0 165 -39.5t57 -138.5v-347h-182v303q0 39 -21 56.5t-62 17.5q-19 0 -37.5 -5.5t-21.5 -10.5v-361h-182v465q35 19 127 39.5zM227 566v109h140v-109h-140z" />
    <glyph glyph-name="uni1E47" unicode="&#x1e47;" horiz-adv-x="626" 
d="M187 504.5q92 20.5 157 20.5q108 0 165 -39.5t57 -138.5v-347h-182v303q0 39 -21 56.5t-62 17.5q-19 0 -37.5 -5.5t-21.5 -10.5v-361h-182v465q35 19 127 39.5zM251 -159v109h120v-109h-120z" />
    <glyph glyph-name="eng" unicode="&#x14b;" horiz-adv-x="639" 
d="M56 412q39 33 110 63.5t134 30.5q110 0 174 -40t64 -135v-331q0 -110 -70 -151.5t-190 -41.5v134q82 0 82 61v267q0 42 -17.5 63t-56.5 21q-17 0 -33 -8t-19 -14v-331h-178v412z" />
    <glyph glyph-name="uni0272" unicode="&#x272;" horiz-adv-x="626" 
d="M60 465q35 19 127 39.5t157 20.5q108 0 165 -39.5t57 -138.5v-347h-182v303q0 39 -21 56.5t-62 17.5q-19 0 -37.5 -5.5t-21.5 -10.5v-354q0 -111 -67.5 -155.5t-184.5 -44.5v144q12 -2 19 -2q23 0 37 14.5t14 41.5v460z" />
    <glyph glyph-name="uni01CC" unicode="&#x1cc;" horiz-adv-x="945" 
d="M187 504.5q92 20.5 157 20.5q108 0 165 -39.5t57 -138.5v-347h-182v303q0 39 -21 56.5t-62 17.5q-19 0 -37.5 -5.5t-21.5 -10.5v-361h-182v465q35 19 127 39.5zM699 579v131h186v-131h-186zM631 -49q12 -2 19 -2q23 0 37 14.5t14 41.5v504h182l2 -502
q0 -111 -68.5 -155.5t-185.5 -44.5v144z" />
    <glyph glyph-name="uni1E49" unicode="&#x1e49;" horiz-adv-x="626" 
d="M187 504.5q92 20.5 157 20.5q108 0 165 -39.5t57 -138.5v-347h-182v303q0 39 -21 56.5t-62 17.5q-19 0 -37.5 -5.5t-21.5 -10.5v-361h-182v465q35 19 127 39.5zM163 -155v112h294v-112h-294z" />
    <glyph glyph-name="ntilde" unicode="&#xf1;" horiz-adv-x="626" 
d="M187 504.5q92 20.5 157 20.5q108 0 165 -39.5t57 -138.5v-347h-182v303q0 39 -21 56.5t-62 17.5q-19 0 -37.5 -5.5t-21.5 -10.5v-361h-182v465q35 19 127 39.5zM117 565q0 40 16 75.5t45.5 56.5t68.5 21q25 0 46 -9.5t47 -27.5q20 -14 35 -21t30 -7q38 0 38 63h81
q0 -47 -17.5 -81.5t-46 -52.5t-60.5 -18q-39 0 -63 11t-52 31q-15 12 -24.5 17.5t-21.5 5.5q-23 0 -33 -19.5t-10 -44.5h-79z" />
    <glyph glyph-name="o" unicode="o" horiz-adv-x="599" 
d="M30 258q0 145 66 208t202 63q135 0 203 -63.5t68 -207.5q0 -136 -69.5 -204.5t-201.5 -68.5q-268 0 -268 273zM364.5 159q24.5 32 24.5 99q0 76 -23 103.5t-68 27.5q-31 0 -49.5 -10.5t-28.5 -39t-10 -81.5q0 -69 22 -100t66 -31q42 0 66.5 32z" />
    <glyph glyph-name="oacute" unicode="&#xf3;" horiz-adv-x="599" 
d="M30 258q0 145 66 208t202 63q135 0 203 -63.5t68 -207.5q0 -136 -69.5 -204.5t-201.5 -68.5q-268 0 -268 273zM364.5 159q24.5 32 24.5 99q0 76 -23 103.5t-68 27.5q-31 0 -49.5 -10.5t-28.5 -39t-10 -81.5q0 -69 22 -100t66 -31q42 0 66.5 32zM244 576l42 127h177
l-123 -127h-96z" />
    <glyph glyph-name="obreve" unicode="&#x14f;" horiz-adv-x="599" 
d="M30 258q0 145 66 208t202 63q135 0 203 -63.5t68 -207.5q0 -136 -69.5 -204.5t-201.5 -68.5q-268 0 -268 273zM364.5 159q24.5 32 24.5 99q0 76 -23 103.5t-68 27.5q-31 0 -49.5 -10.5t-28.5 -39t-10 -81.5q0 -69 22 -100t66 -31q42 0 66.5 32zM189 602.5
q-35 37.5 -46 103.5h96q7 -22 22 -39t39 -17q43 0 61 56h97q-6 -64 -43.5 -102.5t-114.5 -38.5q-76 0 -111 37.5z" />
    <glyph glyph-name="uni01D2" unicode="&#x1d2;" horiz-adv-x="599" 
d="M30 258q0 145 66 208t202 63q135 0 203 -63.5t68 -207.5q0 -136 -69.5 -204.5t-201.5 -68.5q-268 0 -268 273zM364.5 159q24.5 32 24.5 99q0 76 -23 103.5t-68 27.5q-31 0 -49.5 -10.5t-28.5 -39t-10 -81.5q0 -69 22 -100t66 -31q42 0 66.5 32zM221 594l-80 122h112
l42 -54l42 54h112l-70 -122h-158z" />
    <glyph glyph-name="ocircumflex" unicode="&#xf4;" horiz-adv-x="599" 
d="M30 258q0 145 66 208t202 63q135 0 203 -63.5t68 -207.5q0 -136 -69.5 -204.5t-201.5 -68.5q-268 0 -268 273zM364.5 159q24.5 32 24.5 99q0 76 -23 103.5t-68 27.5q-31 0 -49.5 -10.5t-28.5 -39t-10 -81.5q0 -69 22 -100t66 -31q42 0 66.5 32zM146 584l90 122h148
l90 -122h-122l-42 54l-42 -54h-122z" />
    <glyph glyph-name="uni1ED1" unicode="&#x1ed1;" horiz-adv-x="599" 
d="M30 258q0 145 66 208t202 63q135 0 203 -63.5t68 -207.5q0 -136 -69.5 -204.5t-201.5 -68.5q-268 0 -268 273zM364.5 159q24.5 32 24.5 99q0 76 -23 103.5t-68 27.5q-31 0 -49.5 -10.5t-28.5 -39t-10 -81.5q0 -69 22 -100t66 -31q42 0 66.5 32zM137 564l90 122h148
l90 -122h-122l-42 54l-42 -54h-122zM435 638l28 112h191l-133 -112h-86z" />
    <glyph glyph-name="uni1ED9" unicode="&#x1ed9;" horiz-adv-x="599" 
d="M30 258q0 145 66 208t202 63q135 0 203 -63.5t68 -207.5q0 -136 -69.5 -204.5t-201.5 -68.5q-268 0 -268 273zM364.5 159q24.5 32 24.5 99q0 76 -23 103.5t-68 27.5q-31 0 -49.5 -10.5t-28.5 -39t-10 -81.5q0 -69 22 -100t66 -31q42 0 66.5 32zM146 584l90 122h148
l90 -122h-122l-42 54l-42 -54h-122zM240 -159v109h120v-109h-120z" />
    <glyph glyph-name="uni1ED3" unicode="&#x1ed3;" horiz-adv-x="599" 
d="M30 258q0 145 66 208t202 63q135 0 203 -63.5t68 -207.5q0 -136 -69.5 -204.5t-201.5 -68.5q-268 0 -268 273zM364.5 159q24.5 32 24.5 99q0 76 -23 103.5t-68 27.5q-31 0 -49.5 -10.5t-28.5 -39t-10 -81.5q0 -69 22 -100t66 -31q42 0 66.5 32zM146 564l90 122h148
l90 -122h-122l-42 54l-42 -54h-122zM68 638l-103 110h157l42 -110h-96z" />
    <glyph glyph-name="uni1ED5" unicode="&#x1ed5;" horiz-adv-x="599" 
d="M30 258q0 145 66 208t202 63q135 0 203 -63.5t68 -207.5q0 -136 -69.5 -204.5t-201.5 -68.5q-268 0 -268 273zM364.5 159q24.5 32 24.5 99q0 76 -23 103.5t-68 27.5q-31 0 -49.5 -10.5t-28.5 -39t-10 -81.5q0 -69 22 -100t66 -31q42 0 66.5 32zM126 573l90 122h148
l90 -122h-122l-42 54l-42 -54h-122zM423 698q15 0 25.5 7t10.5 17q0 23 -40 23q-14 0 -31 -4v65q23 5 70 5q55 0 88 -20t33 -62q0 -31 -16 -49t-43 -18v-23h-97v59z" />
    <glyph glyph-name="uni1ED7" unicode="&#x1ed7;" horiz-adv-x="599" 
d="M30 258q0 145 66 208t202 63q135 0 203 -63.5t68 -207.5q0 -136 -69.5 -204.5t-201.5 -68.5q-268 0 -268 273zM364.5 159q24.5 32 24.5 99q0 76 -23 103.5t-68 27.5q-31 0 -49.5 -10.5t-28.5 -39t-10 -81.5q0 -69 22 -100t66 -31q42 0 66.5 32zM146 556l90 122h148
l90 -122h-122l-42 54l-42 -54h-122zM106 724q0 40 16 75.5t45.5 56.5t68.5 21q25 0 46 -9.5t47 -27.5q20 -14 35 -21t30 -7q38 0 38 63h81q0 -47 -17.5 -81.5t-46 -52.5t-60.5 -18q-39 0 -63 11t-52 31q-15 12 -24.5 17.5t-21.5 5.5q-23 0 -33 -19.5t-10 -44.5h-79z" />
    <glyph glyph-name="uni020D" unicode="&#x20d;" horiz-adv-x="599" 
d="M30 258q0 145 66 208t202 63q135 0 203 -63.5t68 -207.5q0 -136 -69.5 -204.5t-201.5 -68.5q-268 0 -268 273zM364.5 159q24.5 32 24.5 99q0 76 -23 103.5t-68 27.5q-31 0 -49.5 -10.5t-28.5 -39t-10 -81.5q0 -69 22 -100t66 -31q42 0 66.5 32zM169 576l-123 127h177
l42 -127h-96zM374 576l-123 127h177l42 -127h-96z" />
    <glyph glyph-name="odieresis" unicode="&#xf6;" horiz-adv-x="599" 
d="M30 258q0 145 66 208t202 63q135 0 203 -63.5t68 -207.5q0 -136 -69.5 -204.5t-201.5 -68.5q-268 0 -268 273zM364.5 159q24.5 32 24.5 99q0 76 -23 103.5t-68 27.5q-31 0 -49.5 -10.5t-28.5 -39t-10 -81.5q0 -69 22 -100t66 -31q42 0 66.5 32zM136 586v109h150v-109
h-150zM335 586v109h150v-109h-150z" />
    <glyph glyph-name="uni022B" unicode="&#x22b;" horiz-adv-x="599" 
d="M30 258q0 145 66 208t202 63q135 0 203 -63.5t68 -207.5q0 -136 -69.5 -204.5t-201.5 -68.5q-268 0 -268 273zM364.5 159q24.5 32 24.5 99q0 76 -23 103.5t-68 27.5q-31 0 -49.5 -10.5t-28.5 -39t-10 -81.5q0 -69 22 -100t66 -31q42 0 66.5 32zM136 586v109h150v-109
h-150zM335 586v109h150v-109h-150zM147 738v112h294v-112h-294z" />
    <glyph glyph-name="uni0231" unicode="&#x231;" horiz-adv-x="599" 
d="M30 258q0 145 66 208t202 63q135 0 203 -63.5t68 -207.5q0 -136 -69.5 -204.5t-201.5 -68.5q-268 0 -268 273zM364.5 159q24.5 32 24.5 99q0 76 -23 103.5t-68 27.5q-31 0 -49.5 -10.5t-28.5 -39t-10 -81.5q0 -69 22 -100t66 -31q42 0 66.5 32zM216 576v109h140v-109
h-140zM147 738v112h294v-112h-294z" />
    <glyph glyph-name="uni1ECD" unicode="&#x1ecd;" horiz-adv-x="599" 
d="M30 258q0 145 66 208t202 63q135 0 203 -63.5t68 -207.5q0 -136 -69.5 -204.5t-201.5 -68.5q-268 0 -268 273zM364.5 159q24.5 32 24.5 99q0 76 -23 103.5t-68 27.5q-31 0 -49.5 -10.5t-28.5 -39t-10 -81.5q0 -69 22 -100t66 -31q42 0 66.5 32zM240 -159v109h120v-109
h-120z" />
    <glyph glyph-name="ograve" unicode="&#xf2;" horiz-adv-x="599" 
d="M30 258q0 145 66 208t202 63q135 0 203 -63.5t68 -207.5q0 -136 -69.5 -204.5t-201.5 -68.5q-268 0 -268 273zM364.5 159q24.5 32 24.5 99q0 76 -23 103.5t-68 27.5q-31 0 -49.5 -10.5t-28.5 -39t-10 -81.5q0 -69 22 -100t66 -31q42 0 66.5 32zM255 576l-123 127h177
l42 -127h-96z" />
    <glyph glyph-name="uni1ECF" unicode="&#x1ecf;" horiz-adv-x="599" 
d="M30 258q0 145 66 208t202 63q135 0 203 -63.5t68 -207.5q0 -136 -69.5 -204.5t-201.5 -68.5q-268 0 -268 273zM364.5 159q24.5 32 24.5 99q0 76 -23 103.5t-68 27.5q-31 0 -49.5 -10.5t-28.5 -39t-10 -81.5q0 -69 22 -100t66 -31q42 0 66.5 32zM264 623q15 0 25.5 7
t10.5 17q0 23 -40 23q-14 0 -31 -4v65q23 5 70 5q55 0 88 -20t33 -62q0 -31 -16 -49t-43 -18v-23h-97v59z" />
    <glyph glyph-name="ohorn" unicode="&#x1a1;" horiz-adv-x="599" 
d="M600 588v-68q0 -66 -70 -91q39 -63 39 -171q0 -136 -69.5 -204.5t-201.5 -68.5q-268 0 -268 273q0 145 66 208t202 63q80 0 136 -22q59 5 59 39v42h107zM364.5 159q24.5 32 24.5 99q0 76 -23 103.5t-68 27.5q-31 0 -49.5 -10.5t-28.5 -39t-10 -81.5q0 -69 22 -100t66 -31
q42 0 66.5 32z" />
    <glyph glyph-name="uni1EDB" unicode="&#x1edb;" horiz-adv-x="599" 
d="M600 588v-68q0 -66 -70 -91q39 -63 39 -171q0 -136 -69.5 -204.5t-201.5 -68.5q-268 0 -268 273q0 145 66 208t202 63q80 0 136 -22q59 5 59 39v42h107zM364.5 159q24.5 32 24.5 99q0 76 -23 103.5t-68 27.5q-31 0 -49.5 -10.5t-28.5 -39t-10 -81.5q0 -69 22 -100t66 -31
q42 0 66.5 32zM244 576l42 127h177l-123 -127h-96z" />
    <glyph glyph-name="uni1EE3" unicode="&#x1ee3;" horiz-adv-x="599" 
d="M600 588v-68q0 -66 -70 -91q39 -63 39 -171q0 -136 -69.5 -204.5t-201.5 -68.5q-268 0 -268 273q0 145 66 208t202 63q80 0 136 -22q59 5 59 39v42h107zM364.5 159q24.5 32 24.5 99q0 76 -23 103.5t-68 27.5q-31 0 -49.5 -10.5t-28.5 -39t-10 -81.5q0 -69 22 -100t66 -31
q42 0 66.5 32zM240 -159v109h120v-109h-120z" />
    <glyph glyph-name="uni1EDD" unicode="&#x1edd;" horiz-adv-x="599" 
d="M600 588v-68q0 -66 -70 -91q39 -63 39 -171q0 -136 -69.5 -204.5t-201.5 -68.5q-268 0 -268 273q0 145 66 208t202 63q80 0 136 -22q59 5 59 39v42h107zM364.5 159q24.5 32 24.5 99q0 76 -23 103.5t-68 27.5q-31 0 -49.5 -10.5t-28.5 -39t-10 -81.5q0 -69 22 -100t66 -31
q42 0 66.5 32zM255 576l-123 127h177l42 -127h-96z" />
    <glyph glyph-name="uni1EDF" unicode="&#x1edf;" horiz-adv-x="599" 
d="M600 588v-68q0 -66 -70 -91q39 -63 39 -171q0 -136 -69.5 -204.5t-201.5 -68.5q-268 0 -268 273q0 145 66 208t202 63q80 0 136 -22q59 5 59 39v42h107zM364.5 159q24.5 32 24.5 99q0 76 -23 103.5t-68 27.5q-31 0 -49.5 -10.5t-28.5 -39t-10 -81.5q0 -69 22 -100t66 -31
q42 0 66.5 32zM264 623q15 0 25.5 7t10.5 17q0 23 -40 23q-14 0 -31 -4v65q23 5 70 5q55 0 88 -20t33 -62q0 -31 -16 -49t-43 -18v-23h-97v59z" />
    <glyph glyph-name="uni1EE1" unicode="&#x1ee1;" horiz-adv-x="599" 
d="M600 588v-68q0 -66 -70 -91q39 -63 39 -171q0 -136 -69.5 -204.5t-201.5 -68.5q-268 0 -268 273q0 145 66 208t202 63q80 0 136 -22q59 5 59 39v42h107zM364.5 159q24.5 32 24.5 99q0 76 -23 103.5t-68 27.5q-31 0 -49.5 -10.5t-28.5 -39t-10 -81.5q0 -69 22 -100t66 -31
q42 0 66.5 32zM106 575q0 40 16 75.5t45.5 56.5t68.5 21q25 0 46 -9.5t47 -27.5q20 -14 35 -21t30 -7q38 0 38 63h81q0 -47 -17.5 -81.5t-46 -52.5t-60.5 -18q-39 0 -63 11t-52 31q-15 12 -24.5 17.5t-21.5 5.5q-23 0 -33 -19.5t-10 -44.5h-79z" />
    <glyph glyph-name="ohungarumlaut" unicode="&#x151;" horiz-adv-x="599" 
d="M30 258q0 145 66 208t202 63q135 0 203 -63.5t68 -207.5q0 -136 -69.5 -204.5t-201.5 -68.5q-268 0 -268 273zM364.5 159q24.5 32 24.5 99q0 76 -23 103.5t-68 27.5q-31 0 -49.5 -10.5t-28.5 -39t-10 -81.5q0 -69 22 -100t66 -31q42 0 66.5 32zM175 586l62 117h117
l-93 -117h-86zM326 586l62 117h117l-93 -117h-86z" />
    <glyph glyph-name="uni020F" unicode="&#x20f;" horiz-adv-x="599" 
d="M30 258q0 145 66 208t202 63q135 0 203 -63.5t68 -207.5q0 -136 -69.5 -204.5t-201.5 -68.5q-268 0 -268 273zM364.5 159q24.5 32 24.5 99q0 76 -23 103.5t-68 27.5q-31 0 -49.5 -10.5t-28.5 -39t-10 -81.5q0 -69 22 -100t66 -31q42 0 66.5 32zM414.5 653.5
q37.5 -38.5 43.5 -102.5h-97q-18 56 -61 56q-24 0 -39 -17t-22 -39h-96q11 66 46 103.5t111 37.5q77 0 114.5 -38.5z" />
    <glyph glyph-name="omacron" unicode="&#x14d;" horiz-adv-x="599" 
d="M30 258q0 145 66 208t202 63q135 0 203 -63.5t68 -207.5q0 -136 -69.5 -204.5t-201.5 -68.5q-268 0 -268 273zM364.5 159q24.5 32 24.5 99q0 76 -23 103.5t-68 27.5q-31 0 -49.5 -10.5t-28.5 -39t-10 -81.5q0 -69 22 -100t66 -31q42 0 66.5 32zM147 572v112h294v-112
h-294z" />
    <glyph glyph-name="uni1E53" unicode="&#x1e53;" horiz-adv-x="599" 
d="M30 258q0 145 66 208t202 63q135 0 203 -63.5t68 -207.5q0 -136 -69.5 -204.5t-201.5 -68.5q-268 0 -268 273zM364.5 159q24.5 32 24.5 99q0 76 -23 103.5t-68 27.5q-31 0 -49.5 -10.5t-28.5 -39t-10 -81.5q0 -69 22 -100t66 -31q42 0 66.5 32zM147 572v112h294v-112
h-294zM244 721l42 127h177l-123 -127h-96z" />
    <glyph glyph-name="uni1E51" unicode="&#x1e51;" horiz-adv-x="599" 
d="M30 258q0 145 66 208t202 63q135 0 203 -63.5t68 -207.5q0 -136 -69.5 -204.5t-201.5 -68.5q-268 0 -268 273zM364.5 159q24.5 32 24.5 99q0 76 -23 103.5t-68 27.5q-31 0 -49.5 -10.5t-28.5 -39t-10 -81.5q0 -69 22 -100t66 -31q42 0 66.5 32zM147 572v112h294v-112
h-294zM255 721l-123 127h177l42 -127h-96z" />
    <glyph glyph-name="uni01EB" unicode="&#x1eb;" horiz-adv-x="599" 
d="M531 94.5q-38 -63.5 -112 -90.5l12 -4q-99 -38 -99 -74q0 -21 9 -28.5t26 -7.5q29 0 70 37v-95q-24 -12 -46 -19t-59 -7q-74 0 -108.5 24.5t-34.5 76.5q0 46 52 82q-211 27 -211 269q0 145 66 208t202 63q135 0 203 -63.5t68 -207.5q0 -100 -38 -163.5zM232 158
q22 -31 66 -31q42 0 66.5 32t24.5 99q0 76 -23 103.5t-68 27.5q-31 0 -49.5 -10.5t-28.5 -39t-10 -81.5q0 -69 22 -100z" />
    <glyph glyph-name="oslash" unicode="&#xf8;" horiz-adv-x="613" 
d="M534 422q35 -62 35 -164q0 -136 -69.5 -204.5t-201.5 -68.5q-72 0 -123 19l-4 -4h-160l66 77q-47 67 -47 181q0 145 66 208t202 63q96 0 155 -30h147zM211 233l128 149q-17 7 -41 7q-31 0 -49.5 -10.5t-28.5 -39t-10 -81.5q0 -17 1 -25zM363.5 158q24.5 31 25.5 96
l-108 -126q6 -1 17 -1q41 0 65.5 31z" />
    <glyph glyph-name="oslashacute" unicode="&#x1ff;" horiz-adv-x="613" 
d="M534 422q35 -62 35 -164q0 -136 -69.5 -204.5t-201.5 -68.5q-72 0 -123 19l-4 -4h-160l66 77q-47 67 -47 181q0 145 66 208t202 63q96 0 155 -30h147zM211 233l128 149q-17 7 -41 7q-31 0 -49.5 -10.5t-28.5 -39t-10 -81.5q0 -17 1 -25zM363.5 158q24.5 31 25.5 96
l-108 -126q6 -1 17 -1q41 0 65.5 31zM251 546l42 127h177l-123 -127h-96z" />
    <glyph glyph-name="otilde" unicode="&#xf5;" horiz-adv-x="599" 
d="M30 258q0 145 66 208t202 63q135 0 203 -63.5t68 -207.5q0 -136 -69.5 -204.5t-201.5 -68.5q-268 0 -268 273zM364.5 159q24.5 32 24.5 99q0 76 -23 103.5t-68 27.5q-31 0 -49.5 -10.5t-28.5 -39t-10 -81.5q0 -69 22 -100t66 -31q42 0 66.5 32zM106 575q0 40 16 75.5
t45.5 56.5t68.5 21q25 0 46 -9.5t47 -27.5q20 -14 35 -21t30 -7q38 0 38 63h81q0 -47 -17.5 -81.5t-46 -52.5t-60.5 -18q-39 0 -63 11t-52 31q-15 12 -24.5 17.5t-21.5 5.5q-23 0 -33 -19.5t-10 -44.5h-79z" />
    <glyph glyph-name="uni1E4D" unicode="&#x1e4d;" horiz-adv-x="599" 
d="M30 258q0 145 66 208t202 63q135 0 203 -63.5t68 -207.5q0 -136 -69.5 -204.5t-201.5 -68.5q-268 0 -268 273zM364.5 159q24.5 32 24.5 99q0 76 -23 103.5t-68 27.5q-31 0 -49.5 -10.5t-28.5 -39t-10 -81.5q0 -69 22 -100t66 -31q42 0 66.5 32zM106 575q0 40 16 75.5
t45.5 56.5t68.5 21q25 0 46 -9.5t47 -27.5q20 -14 35 -21t30 -7q38 0 38 63h81q0 -47 -17.5 -81.5t-46 -52.5t-60.5 -18q-39 0 -63 11t-52 31q-15 12 -24.5 17.5t-21.5 5.5q-23 0 -33 -19.5t-10 -44.5h-79zM244 782l42 127h177l-123 -127h-96z" />
    <glyph glyph-name="uni1E4F" unicode="&#x1e4f;" horiz-adv-x="599" 
d="M30 258q0 145 66 208t202 63q135 0 203 -63.5t68 -207.5q0 -136 -69.5 -204.5t-201.5 -68.5q-268 0 -268 273zM364.5 159q24.5 32 24.5 99q0 76 -23 103.5t-68 27.5q-31 0 -49.5 -10.5t-28.5 -39t-10 -81.5q0 -69 22 -100t66 -31q42 0 66.5 32zM106 575q0 40 16 75.5
t45.5 56.5t68.5 21q25 0 46 -9.5t47 -27.5q20 -14 35 -21t30 -7q38 0 38 63h81q0 -47 -17.5 -81.5t-46 -52.5t-60.5 -18q-39 0 -63 11t-52 31q-15 12 -24.5 17.5t-21.5 5.5q-23 0 -33 -19.5t-10 -44.5h-79zM136 792v109h150v-109h-150zM335 792v109h150v-109h-150z" />
    <glyph glyph-name="uni022D" unicode="&#x22d;" horiz-adv-x="599" 
d="M30 258q0 145 66 208t202 63q135 0 203 -63.5t68 -207.5q0 -136 -69.5 -204.5t-201.5 -68.5q-268 0 -268 273zM364.5 159q24.5 32 24.5 99q0 76 -23 103.5t-68 27.5q-31 0 -49.5 -10.5t-28.5 -39t-10 -81.5q0 -69 22 -100t66 -31q42 0 66.5 32zM106 575q0 40 16 75.5
t45.5 56.5t68.5 21q25 0 46 -9.5t47 -27.5q20 -14 35 -21t30 -7q38 0 38 63h81q0 -47 -17.5 -81.5t-46 -52.5t-60.5 -18q-39 0 -63 11t-52 31q-15 12 -24.5 17.5t-21.5 5.5q-23 0 -33 -19.5t-10 -44.5h-79zM147 778v112h294v-112h-294z" />
    <glyph glyph-name="oe" unicode="&#x153;" horiz-adv-x="929" 
d="M841.5 448.5q58.5 -80.5 57.5 -244.5h-317q24 -70 127 -70q41 0 113 27l25 8v-151q-86 -33 -187 -33q-104 0 -176 55q-67 -55 -186 -55q-268 0 -268 273q0 145 66 208t202 63q124 0 189 -51q66 51 171 51q125 0 183.5 -80.5zM602.5 374.5q-20.5 -20.5 -27.5 -63.5h145
q-6 46 -22.5 65t-48.5 19q-26 0 -46.5 -20.5zM364.5 159q24.5 32 24.5 99q0 76 -23 103.5t-68 27.5q-31 0 -49.5 -10.5t-28.5 -39t-10 -81.5q0 -69 22 -100t66 -31q42 0 66.5 32z" />
    <glyph glyph-name="p" unicode="p" horiz-adv-x="614" 
d="M516 466q68 -63 68 -213q0 -79 -26.5 -139.5t-76 -94.5t-115.5 -34q-36 0 -67 3.5t-61 22.5v-176h-178v560q0 64 70.5 99t186.5 35q131 0 199 -63zM359.5 138q21.5 11 33 40t11.5 82q0 63 -22 91t-73 28q-42 0 -56.5 -7.5t-14.5 -21.5v-208q13 -7 31.5 -11t33.5 -4
q35 0 56.5 11z" />
    <glyph glyph-name="thorn" unicode="&#xfe;" horiz-adv-x="606" 
d="M509.5 442q66.5 -63 66.5 -209q0 -74 -26.5 -132.5t-76 -92t-115.5 -33.5q-34 0 -62 3.5t-56 21.5v-178h-180v878h180v-201q44 6 79 6q124 0 190.5 -63zM373 143.5q23 26.5 23 96.5q0 60 -20.5 87.5t-64.5 27.5q-15 0 -35 -3.5t-36 -10.5v-209q13 -7 31.5 -11t33.5 -4
q45 0 68 26.5z" />
    <glyph glyph-name="q" unicode="q" horiz-adv-x="615" 
d="M555 374v-559h-178v201q-28 -22 -57 -26.5t-61 -4.5q-110 0 -169.5 67t-59.5 194q0 146 70.5 212.5t207.5 66.5q247 0 247 -151zM311 127q16 0 34.5 4t31.5 11v191q0 21 -18.5 32t-50.5 11q-98 0 -98 -117q0 -132 101 -132z" />
    <glyph glyph-name="r" unicode="r" horiz-adv-x="450" 
d="M60 450q16 15 53 33t83.5 30.5t87.5 12.5q112 0 151 -32v-129q-20 6 -66.5 10t-85.5 4q-32 0 -41 -2v-377h-182v450z" />
    <glyph glyph-name="racute" unicode="&#x155;" horiz-adv-x="450" 
d="M60 450q16 15 53 33t83.5 30.5t87.5 12.5q112 0 151 -32v-129q-20 6 -66.5 10t-85.5 4q-32 0 -41 -2v-377h-182v450zM152 566l42 127h177l-123 -127h-96z" />
    <glyph glyph-name="rcaron" unicode="&#x159;" horiz-adv-x="450" 
d="M60 450q16 15 53 33t83.5 30.5t87.5 12.5q112 0 151 -32v-129q-20 6 -66.5 10t-85.5 4q-32 0 -41 -2v-377h-182v450zM129 584l-80 122h112l42 -54l42 54h112l-70 -122h-158z" />
    <glyph glyph-name="rcommaaccent" unicode="&#x157;" horiz-adv-x="450" 
d="M60 450q16 15 53 33t83.5 30.5t87.5 12.5q112 0 151 -32v-129q-20 6 -66.5 10t-85.5 4q-32 0 -41 -2v-377h-182v450zM41 -119q22 4 30.5 19t7.5 50h135q2 -63 -43.5 -103.5t-129.5 -40.5v75z" />
    <glyph glyph-name="uni0211" unicode="&#x211;" horiz-adv-x="450" 
d="M60 450q16 15 53 33t83.5 30.5t87.5 12.5q112 0 151 -32v-129q-20 6 -66.5 10t-85.5 4q-32 0 -41 -2v-377h-182v450zM77 566l-123 127h177l42 -127h-96zM282 566l-123 127h177l42 -127h-96z" />
    <glyph glyph-name="uni0213" unicode="&#x213;" horiz-adv-x="450" 
d="M60 450q16 15 53 33t83.5 30.5t87.5 12.5q112 0 151 -32v-129q-20 6 -66.5 10t-85.5 4q-32 0 -41 -2v-377h-182v450zM322.5 643.5q37.5 -38.5 43.5 -102.5h-97q-18 56 -61 56q-24 0 -39 -17t-22 -39h-96q11 66 46 103.5t111 37.5q77 0 114.5 -38.5z" />
    <glyph glyph-name="uni1E5F" unicode="&#x1e5f;" horiz-adv-x="450" 
d="M60 450q16 15 53 33t83.5 30.5t87.5 12.5q112 0 151 -32v-129q-20 6 -66.5 10t-85.5 4q-32 0 -41 -2v-377h-182v450zM-10 -155v112h294v-112h-294z" />
    <glyph glyph-name="s" unicode="s" horiz-adv-x="493" 
d="M132 -6q-35 9 -82 26v154q29 -24 77 -44t98 -20q27 0 35.5 7t8.5 20q0 16 -28 26.5t-77 18.5q-50 8 -84.5 47t-34.5 109q0 65 33.5 106.5t84 59t102.5 16.5q66 -3 104.5 -14t69.5 -32l1 -135l-35.5 20t-56.5 25t-55 9q-34 0 -46 -9t-12 -25q0 -20 16 -28.5t53 -18.5
q49 -11 78.5 -23t52.5 -44t23 -91q-3 -90 -69.5 -129.5t-174.5 -39.5q-47 0 -82 9z" />
    <glyph glyph-name="sacute" unicode="&#x15b;" horiz-adv-x="493" 
d="M132 -6q-35 9 -82 26v154q29 -24 77 -44t98 -20q27 0 35.5 7t8.5 20q0 16 -28 26.5t-77 18.5q-50 8 -84.5 47t-34.5 109q0 65 33.5 106.5t84 59t102.5 16.5q66 -3 104.5 -14t69.5 -32l1 -135l-35.5 20t-56.5 25t-55 9q-34 0 -46 -9t-12 -25q0 -20 16 -28.5t53 -18.5
q49 -11 78.5 -23t52.5 -44t23 -91q-3 -90 -69.5 -129.5t-174.5 -39.5q-47 0 -82 9zM186 566l42 127h177l-123 -127h-96z" />
    <glyph glyph-name="uni1E65" unicode="&#x1e65;" horiz-adv-x="493" 
d="M132 -6q-35 9 -82 26v154q29 -24 77 -44t98 -20q27 0 35.5 7t8.5 20q0 16 -28 26.5t-77 18.5q-50 8 -84.5 47t-34.5 109q0 65 33.5 106.5t84 59t102.5 16.5q66 -3 104.5 -14t69.5 -32l1 -135l-35.5 20t-56.5 25t-55 9q-34 0 -46 -9t-12 -25q0 -20 16 -28.5t53 -18.5
q49 -11 78.5 -23t52.5 -44t23 -91q-3 -90 -69.5 -129.5t-174.5 -39.5q-47 0 -82 9zM186 566l42 127h177l-123 -127h-96zM188 740v109h140v-109h-140z" />
    <glyph glyph-name="scaron" unicode="&#x161;" horiz-adv-x="493" 
d="M132 -6q-35 9 -82 26v154q29 -24 77 -44t98 -20q27 0 35.5 7t8.5 20q0 16 -28 26.5t-77 18.5q-50 8 -84.5 47t-34.5 109q0 65 33.5 106.5t84 59t102.5 16.5q66 -3 104.5 -14t69.5 -32l1 -135l-35.5 20t-56.5 25t-55 9q-34 0 -46 -9t-12 -25q0 -20 16 -28.5t53 -18.5
q49 -11 78.5 -23t52.5 -44t23 -91q-3 -90 -69.5 -129.5t-174.5 -39.5q-47 0 -82 9zM163 584l-80 122h112l42 -54l42 54h112l-70 -122h-158z" />
    <glyph glyph-name="uni1E67" unicode="&#x1e67;" horiz-adv-x="493" 
d="M132 -6q-35 9 -82 26v154q29 -24 77 -44t98 -20q27 0 35.5 7t8.5 20q0 16 -28 26.5t-77 18.5q-50 8 -84.5 47t-34.5 109q0 65 33.5 106.5t84 59t102.5 16.5q66 -3 104.5 -14t69.5 -32l1 -135l-35.5 20t-56.5 25t-55 9q-34 0 -46 -9t-12 -25q0 -20 16 -28.5t53 -18.5
q49 -11 78.5 -23t52.5 -44t23 -91q-3 -90 -69.5 -129.5t-174.5 -39.5q-47 0 -82 9zM163 584l-80 122h112l42 -54l42 54h112l-70 -122h-158zM158 745v109h140v-109h-140z" />
    <glyph glyph-name="scedilla" unicode="&#x15f;" horiz-adv-x="493" 
d="M314 -5h23l-47 -134h-159l86 124h-3q-47 0 -82 9t-82 26v154q29 -24 77 -44t98 -20q27 0 35.5 7t8.5 20q0 16 -28 26.5t-77 18.5q-50 8 -84.5 47t-34.5 109q0 65 33.5 106.5t84 59t102.5 16.5q66 -3 104.5 -14t69.5 -32l1 -135l-35.5 20t-56.5 25t-55 9q-34 0 -46 -9
t-12 -25q0 -20 16 -28.5t53 -18.5q49 -11 78.5 -23t52.5 -44t23 -91q-4 -127 -144 -159z" />
    <glyph glyph-name="scircumflex" unicode="&#x15d;" horiz-adv-x="493" 
d="M132 -6q-35 9 -82 26v154q29 -24 77 -44t98 -20q27 0 35.5 7t8.5 20q0 16 -28 26.5t-77 18.5q-50 8 -84.5 47t-34.5 109q0 65 33.5 106.5t84 59t102.5 16.5q66 -3 104.5 -14t69.5 -32l1 -135l-35.5 20t-56.5 25t-55 9q-34 0 -46 -9t-12 -25q0 -20 16 -28.5t53 -18.5
q49 -11 78.5 -23t52.5 -44t23 -91q-3 -90 -69.5 -129.5t-174.5 -39.5q-47 0 -82 9zM88 574l90 122h148l90 -122h-122l-42 54l-42 -54h-122z" />
    <glyph glyph-name="scommaaccent" unicode="&#x219;" horiz-adv-x="493" 
d="M132 -6q-35 9 -82 26v154q29 -24 77 -44t98 -20q27 0 35.5 7t8.5 20q0 16 -28 26.5t-77 18.5q-50 8 -84.5 47t-34.5 109q0 65 33.5 106.5t84 59t102.5 16.5q66 -3 104.5 -14t69.5 -32l1 -135l-35.5 20t-56.5 25t-55 9q-34 0 -46 -9t-12 -25q0 -20 16 -28.5t53 -18.5
q49 -11 78.5 -23t52.5 -44t23 -91q-3 -90 -69.5 -129.5t-174.5 -39.5q-47 0 -82 9zM134 -119q22 4 30.5 19t7.5 50h135q2 -63 -43.5 -103.5t-129.5 -40.5v75z" />
    <glyph glyph-name="uni1E61" unicode="&#x1e61;" horiz-adv-x="493" 
d="M132 -6q-35 9 -82 26v154q29 -24 77 -44t98 -20q27 0 35.5 7t8.5 20q0 16 -28 26.5t-77 18.5q-50 8 -84.5 47t-34.5 109q0 65 33.5 106.5t84 59t102.5 16.5q66 -3 104.5 -14t69.5 -32l1 -135l-35.5 20t-56.5 25t-55 9q-34 0 -46 -9t-12 -25q0 -20 16 -28.5t53 -18.5
q49 -11 78.5 -23t52.5 -44t23 -91q-3 -90 -69.5 -129.5t-174.5 -39.5q-47 0 -82 9zM158 566v109h140v-109h-140z" />
    <glyph glyph-name="uni1E63" unicode="&#x1e63;" horiz-adv-x="493" 
d="M132 -6q-35 9 -82 26v154q29 -24 77 -44t98 -20q27 0 35.5 7t8.5 20q0 16 -28 26.5t-77 18.5q-50 8 -84.5 47t-34.5 109q0 65 33.5 106.5t84 59t102.5 16.5q66 -3 104.5 -14t69.5 -32l1 -135l-35.5 20t-56.5 25t-55 9q-34 0 -46 -9t-12 -25q0 -20 16 -28.5t53 -18.5
q49 -11 78.5 -23t52.5 -44t23 -91q-3 -90 -69.5 -129.5t-174.5 -39.5q-47 0 -82 9zM171 -159v109h120v-109h-120z" />
    <glyph glyph-name="uni1E69" unicode="&#x1e69;" horiz-adv-x="493" 
d="M132 -6q-35 9 -82 26v154q29 -24 77 -44t98 -20q27 0 35.5 7t8.5 20q0 16 -28 26.5t-77 18.5q-50 8 -84.5 47t-34.5 109q0 65 33.5 106.5t84 59t102.5 16.5q66 -3 104.5 -14t69.5 -32l1 -135l-35.5 20t-56.5 25t-55 9q-34 0 -46 -9t-12 -25q0 -20 16 -28.5t53 -18.5
q49 -11 78.5 -23t52.5 -44t23 -91q-3 -90 -69.5 -129.5t-174.5 -39.5q-47 0 -82 9zM171 -159v109h120v-109h-120zM158 566v109h140v-109h-140z" />
    <glyph glyph-name="germandbls" unicode="&#xdf;" horiz-adv-x="656" 
d="M60 442q0 76 31.5 136t91 94t141.5 34q83 0 146 -22t97 -59.5t34 -82.5q0 -62 -42.5 -99.5t-87.5 -51.5q66 -19 110.5 -63.5t44.5 -133.5q0 -94 -57.5 -152t-165.5 -58q-57 0 -119 17v145q47 -29 94 -29q30 0 47.5 21.5t17.5 62.5q0 47 -29.5 65.5t-79.5 20.5v144
q78 0 78 63q0 27 -20 45t-56 18q-42 0 -67.5 -29t-25.5 -84v-444h-183v442z" />
    <glyph glyph-name="t" unicode="t" horiz-adv-x="434" 
d="M93 147v227h-68v135h68v138h192v-138h104v-135h-104v-210q0 -37 41 -37q14 0 32 7t31 18v-153q-43 -24 -100 -24q-196 0 -196 172z" />
    <glyph glyph-name="tbar" unicode="&#x167;" horiz-adv-x="410" 
d="M136.5 39q-44.5 46 -44.5 129v46h-54v98h54v72h-68v115h68v148h172v-148h104v-115h-104v-72h91v-98h-91v-72q0 -11 9 -19t22 -8q31 0 73 25v-123q-43 -24 -100 -24q-87 0 -131.5 46z" />
    <glyph glyph-name="tcaron" unicode="&#x165;" horiz-adv-x="434" 
d="M93 147v227h-68v135h68v138h192v-138h104v-135h-104v-210q0 -37 41 -37q14 0 32 7t31 18v-153q-43 -24 -100 -24q-196 0 -196 172zM320 570l74 196h139l-96 -196h-117z" />
    <glyph glyph-name="uni0163" unicode="&#x163;" horiz-adv-x="434" 
d="M285 374v-210q0 -37 41 -37q14 0 32 7t31 18v-153q-30 -18 -73 -23l-40 -115h-159l86 125q-110 32 -110 161v227h-68v135h68v138h192v-138h104v-135h-104z" />
    <glyph glyph-name="uni1E97" unicode="&#x1e97;" horiz-adv-x="434" 
d="M93 147v227h-68v135h68v138h192v-138h104v-135h-104v-210q0 -37 41 -37q14 0 32 7t31 18v-153q-43 -24 -100 -24q-196 0 -196 172zM16 696v109h150v-109h-150zM215 696v109h150v-109h-150z" />
    <glyph glyph-name="uni1E6D" unicode="&#x1e6d;" horiz-adv-x="434" 
d="M93 147v227h-68v135h68v138h192v-138h104v-135h-104v-210q0 -37 41 -37q14 0 32 7t31 18v-153q-43 -24 -100 -24q-196 0 -196 172zM157 -159v109h120v-109h-120z" />
    <glyph glyph-name="uni1E6F" unicode="&#x1e6f;" horiz-adv-x="434" 
d="M93 147v227h-68v135h68v138h192v-138h104v-135h-104v-210q0 -37 41 -37q14 0 32 7t31 18v-153q-43 -24 -100 -24q-196 0 -196 172zM69 -155v112h294v-112h-294z" />
    <glyph glyph-name="u" unicode="u" horiz-adv-x="611" 
d="M127.5 37q-67.5 52 -67.5 160v312h182v-301q0 -37 16.5 -55t53.5 -18t53.5 18t16.5 55v301h169v-312q0 -109 -63 -160.5t-177 -51.5q-116 0 -183.5 52z" />
    <glyph glyph-name="uacute" unicode="&#xfa;" horiz-adv-x="611" 
d="M127.5 37q-67.5 52 -67.5 160v312h182v-301q0 -37 16.5 -55t53.5 -18t53.5 18t16.5 55v301h169v-312q0 -109 -63 -160.5t-177 -51.5q-116 0 -183.5 52zM260 566l42 127h177l-123 -127h-96z" />
    <glyph glyph-name="ubreve" unicode="&#x16d;" horiz-adv-x="611" 
d="M127.5 37q-67.5 52 -67.5 160v312h182v-301q0 -37 16.5 -55t53.5 -18t53.5 18t16.5 55v301h169v-312q0 -109 -63 -160.5t-177 -51.5q-116 0 -183.5 52zM205 592.5q-35 37.5 -46 103.5h96q7 -22 22 -39t39 -17q43 0 61 56h97q-6 -64 -43.5 -102.5t-114.5 -38.5
q-76 0 -111 37.5z" />
    <glyph glyph-name="uni01D4" unicode="&#x1d4;" horiz-adv-x="611" 
d="M127.5 37q-67.5 52 -67.5 160v312h182v-301q0 -37 16.5 -55t53.5 -18t53.5 18t16.5 55v301h169v-312q0 -109 -63 -160.5t-177 -51.5q-116 0 -183.5 52zM237 584l-80 122h112l42 -54l42 54h112l-70 -122h-158z" />
    <glyph glyph-name="ucircumflex" unicode="&#xfb;" horiz-adv-x="611" 
d="M127.5 37q-67.5 52 -67.5 160v312h182v-301q0 -37 16.5 -55t53.5 -18t53.5 18t16.5 55v301h169v-312q0 -109 -63 -160.5t-177 -51.5q-116 0 -183.5 52zM162 574l90 122h148l90 -122h-122l-42 54l-42 -54h-122z" />
    <glyph glyph-name="uni0215" unicode="&#x215;" horiz-adv-x="611" 
d="M127.5 37q-67.5 52 -67.5 160v312h182v-301q0 -37 16.5 -55t53.5 -18t53.5 18t16.5 55v301h169v-312q0 -109 -63 -160.5t-177 -51.5q-116 0 -183.5 52zM185 566l-123 127h177l42 -127h-96zM390 566l-123 127h177l42 -127h-96z" />
    <glyph glyph-name="udieresis" unicode="&#xfc;" horiz-adv-x="611" 
d="M127.5 37q-67.5 52 -67.5 160v312h182v-301q0 -37 16.5 -55t53.5 -18t53.5 18t16.5 55v301h169v-312q0 -109 -63 -160.5t-177 -51.5q-116 0 -183.5 52zM152 576v109h150v-109h-150zM351 576v109h150v-109h-150z" />
    <glyph glyph-name="uni1EE5" unicode="&#x1ee5;" horiz-adv-x="620" 
d="M84 225v274h172v-304q0 -37 14 -55t46 -18t46 18t14 55v304h172v-274q0 -232 -232 -232t-232 232zM256 -159v109h120v-109h-120z" />
    <glyph glyph-name="ugrave" unicode="&#xf9;" horiz-adv-x="611" 
d="M127.5 37q-67.5 52 -67.5 160v312h182v-301q0 -37 16.5 -55t53.5 -18t53.5 18t16.5 55v301h169v-312q0 -109 -63 -160.5t-177 -51.5q-116 0 -183.5 52zM271 566l-123 127h177l42 -127h-96z" />
    <glyph glyph-name="uni1EE7" unicode="&#x1ee7;" horiz-adv-x="620" 
d="M288 615q26 0 26 16q0 21 -30 21q-14 0 -31 -4v53q9 2 23 3.5t27 1.5q40 0 66 -19t26 -53q0 -21 -11 -33.5t-24.5 -17.5t-13.5 -4v-23h-58v59zM84 225v274h172v-304q0 -37 14 -55t46 -18t46 18t14 55v304h172v-274q0 -232 -232 -232t-232 232z" />
    <glyph glyph-name="uhorn" unicode="&#x1b0;" horiz-adv-x="685" 
d="M667 587v-68q0 -84 -116 -102v-220q0 -109 -63 -160.5t-177 -51.5q-116 0 -183.5 52t-67.5 160v312h182v-301q0 -37 16.5 -55t53.5 -18t53.5 18t16.5 55v301h139q39 8 39 36v42h107z" />
    <glyph glyph-name="uni1EE9" unicode="&#x1ee9;" horiz-adv-x="685" 
d="M667 587v-68q0 -84 -116 -102v-220q0 -109 -63 -160.5t-177 -51.5q-116 0 -183.5 52t-67.5 160v312h182v-301q0 -37 16.5 -55t53.5 -18t53.5 18t16.5 55v301h139q39 8 39 36v42h107zM260 566l42 127h177l-123 -127h-96z" />
    <glyph glyph-name="uni1EF1" unicode="&#x1ef1;" horiz-adv-x="685" 
d="M667 587v-68q0 -84 -116 -102v-220q0 -109 -63 -160.5t-177 -51.5q-116 0 -183.5 52t-67.5 160v312h182v-301q0 -37 16.5 -55t53.5 -18t53.5 18t16.5 55v301h139q39 8 39 36v42h107zM246 -159v109h120v-109h-120z" />
    <glyph glyph-name="uni1EEB" unicode="&#x1eeb;" horiz-adv-x="685" 
d="M667 587v-68q0 -84 -116 -102v-220q0 -109 -63 -160.5t-177 -51.5q-116 0 -183.5 52t-67.5 160v312h182v-301q0 -37 16.5 -55t53.5 -18t53.5 18t16.5 55v301h139q39 8 39 36v42h107zM271 566l-123 127h177l42 -127h-96z" />
    <glyph glyph-name="uni1EED" unicode="&#x1eed;" horiz-adv-x="685" 
d="M667 587v-68q0 -84 -116 -102v-220q0 -109 -63 -160.5t-177 -51.5q-116 0 -183.5 52t-67.5 160v312h182v-301q0 -37 16.5 -55t53.5 -18t53.5 18t16.5 55v301h139q39 8 39 36v42h107zM280 613q15 0 25.5 7t10.5 17q0 23 -40 23q-14 0 -31 -4v65q23 5 70 5q55 0 88 -20
t33 -62q0 -31 -16 -49t-43 -18v-23h-97v59z" />
    <glyph glyph-name="uni1EEF" unicode="&#x1eef;" horiz-adv-x="685" 
d="M667 587v-68q0 -84 -116 -102v-220q0 -109 -63 -160.5t-177 -51.5q-116 0 -183.5 52t-67.5 160v312h182v-301q0 -37 16.5 -55t53.5 -18t53.5 18t16.5 55v301h139q39 8 39 36v42h107zM122 565q0 40 16 75.5t45.5 56.5t68.5 21q25 0 46 -9.5t47 -27.5q20 -14 35 -21t30 -7
q38 0 38 63h81q0 -47 -17.5 -81.5t-46 -52.5t-60.5 -18q-39 0 -63 11t-52 31q-15 12 -24.5 17.5t-21.5 5.5q-23 0 -33 -19.5t-10 -44.5h-79z" />
    <glyph glyph-name="uhungarumlaut" unicode="&#x171;" horiz-adv-x="611" 
d="M127.5 37q-67.5 52 -67.5 160v312h182v-301q0 -37 16.5 -55t53.5 -18t53.5 18t16.5 55v301h169v-312q0 -109 -63 -160.5t-177 -51.5q-116 0 -183.5 52zM191 576l62 117h117l-93 -117h-86zM342 576l62 117h117l-93 -117h-86z" />
    <glyph glyph-name="uni0217" unicode="&#x217;" horiz-adv-x="611" 
d="M127.5 37q-67.5 52 -67.5 160v312h182v-301q0 -37 16.5 -55t53.5 -18t53.5 18t16.5 55v301h169v-312q0 -109 -63 -160.5t-177 -51.5q-116 0 -183.5 52zM430.5 643.5q37.5 -38.5 43.5 -102.5h-97q-18 56 -61 56q-24 0 -39 -17t-22 -39h-96q11 66 46 103.5t111 37.5
q77 0 114.5 -38.5z" />
    <glyph glyph-name="umacron" unicode="&#x16b;" horiz-adv-x="611" 
d="M127.5 37q-67.5 52 -67.5 160v312h182v-301q0 -37 16.5 -55t53.5 -18t53.5 18t16.5 55v301h169v-312q0 -109 -63 -160.5t-177 -51.5q-116 0 -183.5 52zM163 562v112h294v-112h-294z" />
    <glyph glyph-name="uni1E7B" unicode="&#x1e7b;" horiz-adv-x="611" 
d="M127.5 37q-67.5 52 -67.5 160v312h182v-301q0 -37 16.5 -55t53.5 -18t53.5 18t16.5 55v301h169v-312q0 -109 -63 -160.5t-177 -51.5q-116 0 -183.5 52zM163 562v112h294v-112h-294zM152 721v109h150v-109h-150zM351 721v109h150v-109h-150z" />
    <glyph glyph-name="uni021B" unicode="&#x21b;" horiz-adv-x="410" 
d="M136.5 39q-44.5 46 -44.5 129v216h-68v115h68v148h172v-148h104v-115h-104v-242q0 -11 9 -19t22 -8q31 0 73 25v-123q-43 -24 -100 -24q-87 0 -131.5 46zM148 -129q22 4 30.5 23t7.5 56h95q1 -39 -16.5 -72.5t-48 -52.5t-68.5 -19v65z" />
    <glyph glyph-name="uogonek" unicode="&#x173;" horiz-adv-x="611" 
d="M551 509v-312q0 -149 -119 -193l14 -4q-99 -38 -99 -74q0 -21 9 -28.5t26 -7.5q29 0 70 37v-95q-24 -12 -46 -19t-59 -7q-74 0 -108.5 24.5t-34.5 76.5q0 46 51 81q-91 12 -143 63.5t-52 145.5v312h182v-301q0 -37 16.5 -55t53.5 -18t53.5 18t16.5 55v301h169z" />
    <glyph glyph-name="uring" unicode="&#x16f;" horiz-adv-x="611" 
d="M127.5 37q-67.5 52 -67.5 160v312h182v-301q0 -37 16.5 -55t53.5 -18t53.5 18t16.5 55v301h169v-312q0 -109 -63 -160.5t-177 -51.5q-116 0 -183.5 52zM222.5 580q-33.5 25 -33.5 71q0 45 34 70.5t93 25.5q60 0 93.5 -25.5t33.5 -70.5q0 -46 -33.5 -71t-93.5 -25
t-93.5 25zM351 626.5q10 6.5 10 24.5q0 17 -10.5 24t-34.5 7t-34.5 -7t-10.5 -24q0 -18 10 -24.5t35 -6.5t35 6.5z" />
    <glyph glyph-name="utilde" unicode="&#x169;" horiz-adv-x="611" 
d="M127.5 37q-67.5 52 -67.5 160v312h182v-301q0 -37 16.5 -55t53.5 -18t53.5 18t16.5 55v301h169v-312q0 -109 -63 -160.5t-177 -51.5q-116 0 -183.5 52zM122 565q0 40 16 75.5t45.5 56.5t68.5 21q25 0 46 -9.5t47 -27.5q20 -14 35 -21t30 -7q38 0 38 63h81
q0 -47 -17.5 -81.5t-46 -52.5t-60.5 -18q-39 0 -63 11t-52 31q-15 12 -24.5 17.5t-21.5 5.5q-23 0 -33 -19.5t-10 -44.5h-79z" />
    <glyph glyph-name="uni1E79" unicode="&#x1e79;" horiz-adv-x="611" 
d="M127.5 37q-67.5 52 -67.5 160v312h182v-301q0 -37 16.5 -55t53.5 -18t53.5 18t16.5 55v301h169v-312q0 -109 -63 -160.5t-177 -51.5q-116 0 -183.5 52zM122 565q0 40 16 75.5t45.5 56.5t68.5 21q25 0 46 -9.5t47 -27.5q20 -14 35 -21t30 -7q38 0 38 63h81
q0 -47 -17.5 -81.5t-46 -52.5t-60.5 -18q-39 0 -63 11t-52 31q-15 12 -24.5 17.5t-21.5 5.5q-23 0 -33 -19.5t-10 -44.5h-79zM260 772l42 127h177l-123 -127h-96z" />
    <glyph glyph-name="v" unicode="v" horiz-adv-x="644" 
d="M430 509h194l-211 -509h-182l-211 509h197l116 -305z" />
    <glyph glyph-name="w" unicode="w" horiz-adv-x="840" 
d="M625 509h195l-170 -509h-161l-70 227l-67 -227h-161l-171 509h197l71 -276l68 276h128l69 -284z" />
    <glyph glyph-name="wacute" unicode="&#x1e83;" horiz-adv-x="840" 
d="M625 509h195l-170 -509h-161l-70 227l-67 -227h-161l-171 509h197l71 -276l68 276h128l69 -284zM365 546l42 127h177l-123 -127h-96z" />
    <glyph glyph-name="wcircumflex" unicode="&#x175;" horiz-adv-x="840" 
d="M625 509h195l-170 -509h-161l-70 227l-67 -227h-161l-171 509h197l71 -276l68 276h128l69 -284zM267 554l90 122h148l90 -122h-122l-42 54l-42 -54h-122z" />
    <glyph glyph-name="wdieresis" unicode="&#x1e85;" horiz-adv-x="840" 
d="M625 509h195l-170 -509h-161l-70 227l-67 -227h-161l-171 509h197l71 -276l68 276h128l69 -284zM257 556v109h150v-109h-150zM456 556v109h150v-109h-150z" />
    <glyph glyph-name="wgrave" unicode="&#x1e81;" horiz-adv-x="840" 
d="M625 509h195l-170 -509h-161l-70 227l-67 -227h-161l-171 509h197l71 -276l68 276h128l69 -284zM376 546l-123 127h177l42 -127h-96z" />
    <glyph glyph-name="x" unicode="x" horiz-adv-x="620" 
d="M605 509l-195 -251l183 -258h-213l-91 129l-84 -129h-190l191 246l-186 263h212l95 -134l88 134h190z" />
    <glyph glyph-name="y" unicode="y" horiz-adv-x="616" 
d="M596 509l-192 -499q-42 -109 -94 -158t-116 -49q-65 0 -109 21v145q34 -12 66 -12q25 0 43 11t28 41l-202 500h208l86 -299l85 299h197z" />
    <glyph glyph-name="yacute" unicode="&#xfd;" horiz-adv-x="616" 
d="M596 509l-192 -499q-42 -109 -94 -158t-116 -49q-65 0 -109 21v145q34 -12 66 -12q25 0 43 11t28 41l-202 500h208l86 -299l85 299h197zM252 546l42 127h177l-123 -127h-96z" />
    <glyph glyph-name="ycircumflex" unicode="&#x177;" horiz-adv-x="616" 
d="M596 509l-192 -499q-42 -109 -94 -158t-116 -49q-65 0 -109 21v145q34 -12 66 -12q25 0 43 11t28 41l-202 500h208l86 -299l85 299h197zM154 554l90 122h148l90 -122h-122l-42 54l-42 -54h-122z" />
    <glyph glyph-name="ydieresis" unicode="&#xff;" horiz-adv-x="616" 
d="M596 509l-192 -499q-42 -109 -94 -158t-116 -49q-65 0 -109 21v145q34 -12 66 -12q25 0 43 11t28 41l-202 500h208l86 -299l85 299h197zM144 556v109h150v-109h-150zM343 556v109h150v-109h-150z" />
    <glyph glyph-name="uni1E8F" unicode="&#x1e8f;" horiz-adv-x="616" 
d="M596 509l-192 -499q-42 -109 -94 -158t-116 -49q-65 0 -109 21v145q34 -12 66 -12q25 0 43 11t28 41l-202 500h208l86 -299l85 299h197zM224 546v109h140v-109h-140z" />
    <glyph glyph-name="uni1EF5" unicode="&#x1ef5;" horiz-adv-x="616" 
d="M596 509l-192 -499q-42 -109 -94 -158t-116 -49q-65 0 -109 21v145q34 -12 66 -12q25 0 43 11t28 41l-202 500h208l86 -299l85 299h197zM435 -159v109h120v-109h-120z" />
    <glyph glyph-name="ygrave" unicode="&#x1ef3;" horiz-adv-x="616" 
d="M596 509l-192 -499q-42 -109 -94 -158t-116 -49q-65 0 -109 21v145q34 -12 66 -12q25 0 43 11t28 41l-202 500h208l86 -299l85 299h197zM263 546l-123 127h177l42 -127h-96z" />
    <glyph glyph-name="uni1EF7" unicode="&#x1ef7;" horiz-adv-x="616" 
d="M596 509l-192 -499q-42 -109 -94 -158t-116 -49q-65 0 -109 21v145q34 -12 66 -12q25 0 43 11t28 41l-202 500h208l86 -299l85 299h197zM272 593q15 0 25.5 7t10.5 17q0 23 -40 23q-14 0 -31 -4v65q23 5 70 5q55 0 88 -20t33 -62q0 -31 -16 -49t-43 -18v-23h-97v59z" />
    <glyph glyph-name="uni0233" unicode="&#x233;" horiz-adv-x="616" 
d="M596 509l-192 -499q-42 -109 -94 -158t-116 -49q-65 0 -109 21v145q34 -12 66 -12q25 0 43 11t28 41l-202 500h208l86 -299l85 299h197zM155 542v112h294v-112h-294z" />
    <glyph glyph-name="uni1EF9" unicode="&#x1ef9;" horiz-adv-x="616" 
d="M596 509l-192 -499q-42 -109 -94 -158t-116 -49q-65 0 -109 21v145q34 -12 66 -12q25 0 43 11t28 41l-202 500h208l86 -299l85 299h197zM114 545q0 40 16 75.5t45.5 56.5t68.5 21q25 0 46 -9.5t47 -27.5q20 -14 35 -21t30 -7q38 0 38 63h81q0 -47 -17.5 -81.5t-46 -52.5
t-60.5 -18q-39 0 -63 11t-52 31q-15 12 -24.5 17.5t-21.5 5.5q-23 0 -33 -19.5t-10 -44.5h-79z" />
    <glyph glyph-name="z" unicode="z" horiz-adv-x="508" 
d="M463 509v-139l-193 -227h193v-143h-418v141l227 235h-222v133h413z" />
    <glyph glyph-name="zacute" unicode="&#x17a;" horiz-adv-x="508" 
d="M463 509v-139l-193 -227h193v-143h-418v141l227 235h-222v133h413zM208 546l42 127h177l-123 -127h-96z" />
    <glyph glyph-name="zcaron" unicode="&#x17e;" horiz-adv-x="508" 
d="M463 509v-139l-193 -227h193v-143h-418v141l227 235h-222v133h413zM185 564l-80 122h112l42 -54l42 54h112l-70 -122h-158z" />
    <glyph glyph-name="zdotaccent" unicode="&#x17c;" horiz-adv-x="508" 
d="M463 509v-139l-193 -227h193v-143h-418v141l227 235h-222v133h413zM180 546v109h140v-109h-140z" />
    <glyph glyph-name="ordfeminine" unicode="&#xaa;" horiz-adv-x="407" 
d="M65 474q0 84 98 84q45 0 62 -13q0 55 -38 55q-49 0 -95 -17v72q22 9 50.5 14.5t51.5 5.5q68 0 103.5 -31t35.5 -90v-81q0 -38 -13 -58t-42.5 -28.5t-82.5 -8.5q-130 0 -130 96zM227 468v31q-14 6 -26 6t-21 -8.5t-9 -19.5q0 -30 28 -30t28 21z" />
    <glyph glyph-name="ordmasculine" unicode="&#xba;" horiz-adv-x="424" 
d="M109 426q-35 37 -35 106q0 70 35 107t100 37q64 0 99 -37t35 -107q0 -69 -35 -106t-99 -37q-65 0 -100 37zM247 532q0 74 -38 74q-39 0 -39 -74q0 -73 39 -73q38 0 38 73z" />
    <glyph glyph-name="pi" unicode="&#x3c0;" horiz-adv-x="634" 
d="M131 0v374h-96v125h562v-125h-98v-374h-125v374h-116v-374h-127z" />
    <glyph glyph-name="zero" unicode="0" horiz-adv-x="675" 
d="M107.5 71.5q-72.5 85.5 -72.5 262.5q0 176 73 262t229 86q158 0 230.5 -86t72.5 -262q0 -177 -72.5 -262.5t-230.5 -85.5q-157 0 -229.5 85.5zM409 184.5q27 39.5 27 149.5q0 109 -27 148.5t-72 39.5q-44 0 -70.5 -39.5t-26.5 -148.5q0 -111 26.5 -150t70.5 -39
q45 0 72 39.5z" />
    <glyph glyph-name="one" unicode="1" horiz-adv-x="478" 
d="M168 0v476l-128 -66v169l159 88h169v-667h-200z" />
    <glyph glyph-name="two" unicode="2" horiz-adv-x="620" 
d="M554 180v-180h-487v136q60 31 123.5 84.5t106 112t42.5 104.5q0 52 -29.5 74t-67.5 22q-41 0 -79 -19.5t-91 -62.5v164q50 31 107 49t130 18q110 0 170.5 -53t60.5 -160q0 -66 -33 -118.5t-78 -88.5t-117 -82h242z" />
    <glyph glyph-name="three" unicode="3" horiz-adv-x="600" 
d="M68 48v165q68 -41 108.5 -59t87.5 -18q45 0 71.5 16t26.5 45q0 34 -22 53t-79 19h-109v144h111q35 0 52.5 16t17.5 39q0 33 -25.5 46.5t-63.5 13.5q-34 0 -70.5 -9t-93.5 -35v145q41 22 88.5 34.5t94.5 12.5q97 0 170 -42.5t73 -140.5q0 -31 -15 -59.5t-39.5 -47.5
t-49.5 -24q59 -17 95 -64t36 -111q0 -107 -77.5 -151t-184.5 -44q-93 0 -203 56z" />
    <glyph glyph-name="four" unicode="4" horiz-adv-x="618" 
d="M310 0v170h-271v132l292 365h181v-351h80v-146h-80v-170h-202zM202 316h108v137z" />
    <glyph glyph-name="five" unicode="5" horiz-adv-x="612" 
d="M457.5 438.5q54.5 -25.5 87 -76.5t32.5 -125q0 -134 -84 -192.5t-218 -58.5q-61 0 -117.5 17.5t-84.5 41.5v183q29 -33 78.5 -58t96.5 -25q52 0 88 18t36 56q0 37 -26 58t-69 21q-30 0 -63 -9t-52 -20l-84 94l46 305h394v-170h-274l-7 -42q48 8 99 8q67 0 121.5 -25.5z
" />
    <glyph glyph-name="six" unicode="6" horiz-adv-x="643" 
d="M552 384.5q56 -55.5 56 -172.5q0 -106 -77 -166t-219 -60q-277 0 -277 323q0 219 103.5 296t237.5 77q55 0 97.5 -8.5t68.5 -21.5v-165q-38 19 -72.5 28.5t-79.5 9.5q-81 0 -114.5 -38.5t-38.5 -106.5q52 61 138 61q121 -1 177 -56.5zM384.5 163q20.5 17 20.5 53
q0 42 -19 63.5t-51 21.5q-38 0 -59 -16.5t-31 -56.5q10 -47 30.5 -64.5t53.5 -17.5q35 0 55.5 17z" />
    <glyph glyph-name="seven" unicode="7" horiz-adv-x="599" 
d="M66 667h490v-106l-214 -561h-219l210 486h-267v181z" />
    <glyph glyph-name="eight" unicode="8" horiz-adv-x="652" 
d="M108.5 36.5q-73.5 50.5 -73.5 147.5q0 56 30 94.5t83 60.5q-97 47 -97 143q0 103 68 151.5t207 48.5t207 -48.5t68 -151.5q0 -96 -97 -143q53 -22 83 -60.5t30 -94.5q0 -97 -73.5 -147.5t-217.5 -50.5t-217.5 50.5zM371 410.5q23 17.5 23 47.5q0 28 -18.5 50.5
t-49.5 22.5t-49.5 -22.5t-18.5 -50.5q0 -30 23 -47.5t45 -17.5t45 17.5zM383.5 161.5q20.5 24.5 20.5 60.5q0 25 -21 47.5t-57 22.5t-57 -22.5t-21 -47.5q0 -36 20.5 -60.5t57.5 -24.5t57.5 24.5z" />
    <glyph glyph-name="nine" unicode="9" horiz-adv-x="646" 
d="M537 600.5q71 -81.5 71 -241.5q0 -219 -103.5 -296t-237.5 -77q-55 0 -97.5 8.5t-68.5 21.5v165q38 -19 72.5 -28.5t79.5 -9.5q81 0 114.5 38.5t38.5 106.5q-52 -61 -138 -61q-121 1 -177 56.5t-56 172.5q0 105 73.5 165.5t201.5 60.5q156 0 227 -81.5zM367.5 383
q20.5 16 30.5 56q-10 48 -31.5 65.5t-56.5 17.5q-32 0 -52 -17t-20 -53q0 -42 19 -63.5t52 -21.5q38 0 58.5 16z" />
    <glyph glyph-name="zero.inferior" unicode="&#x2080;" horiz-adv-x="380" 
d="M56 -109q-41 45 -41 139q0 93 41.5 138.5t133.5 45.5q93 0 134 -45.5t41 -138.5q0 -94 -41 -139t-134 -45t-134 45zM226 -36q13 18 13 66t-13.5 66.5t-35.5 18.5q-49 0 -49 -85q0 -84 49 -84q23 0 36 18z" />
    <glyph glyph-name="one.inferior" unicode="&#x2081;" horiz-adv-x="250" 
d="M92 209h103v-359h-120v233l-58 -32v111z" />
    <glyph glyph-name="two.inferior" unicode="&#x2082;" horiz-adv-x="339" 
d="M309 -37v-113h-266v73l34 23q51 35 78 61.5t27 58.5q0 26 -14.5 39t-34.5 13q-28 0 -45.5 -8t-42.5 -26v94q59 36 112 36q80 0 115 -33t35 -82q0 -41 -29 -76.5t-80 -59.5h111z" />
    <glyph glyph-name="three.inferior" unicode="&#x2083;" horiz-adv-x="335" 
d="M40 -125v89q6 -3 24.5 -15t32.5 -16.5t28 -4.5q24 0 38.5 10.5t14.5 26.5q0 17 -12 28.5t-42 11.5h-39v66h40q19 0 28 8.5t9 21.5t-14.5 20t-32.5 7q-30 0 -68 -19v78q49 26 98 26q54 0 99 -23.5t45 -75.5q0 -25 -17.5 -45.5t-38.5 -24.5q32 -9 51.5 -34.5t19.5 -59.5
q0 -58 -47.5 -81.5t-107.5 -23.5q-47 0 -109 30z" />
    <glyph glyph-name="four.inferior" unicode="&#x2084;" horiz-adv-x="343" 
d="M290 20h43v-89h-43v-81h-110v81h-156v81l157 197h109v-189zM122 20h58v76z" />
    <glyph glyph-name="five.inferior" unicode="&#x2085;" horiz-adv-x="326" 
d="M54 -130v94q40 -26 84 -26q25 0 36 10t11 30q0 17 -12.5 27t-30.5 10q-19 0 -45 -14l-51 35l20 174h222v-93h-142l-2 -31q8 1 47 1q48 0 84 -28t36 -86q0 -66 -37.5 -96.5t-102.5 -30.5q-66 0 -117 24z" />
    <glyph glyph-name="six.inferior" unicode="&#x2086;" horiz-adv-x="347" 
d="M51 -113q-39 42 -39 128q0 119 57.5 158.5t144.5 39.5q21 0 41 -3.5t32 -9.5v-78q-38 12 -65 12q-31 0 -57.5 -20t-26.5 -61q11 15 30 24t59 9t69.5 -28.5t29.5 -81.5q0 -62 -37 -96.5t-109 -34.5q-90 0 -129 42zM190.5 -69q8.5 16 8.5 35q0 28 -7 40t-18 12
q-10 0 -20 -10.5t-15 -23.5q0 -29 8 -49t23 -20q12 0 20.5 16z" />
    <glyph glyph-name="seven.inferior" unicode="&#x2087;" horiz-adv-x="322" 
d="M35 209h272v-58l-119 -301h-137l110 247h-126v112z" />
    <glyph glyph-name="eight.inferior" unicode="&#x2088;" horiz-adv-x="343" 
d="M46 -128q-40 27 -40 82q0 32 21 56t51 32q-23 7 -40.5 26t-17.5 46q0 51 36 75t115 24t114.5 -24t35.5 -75q0 -27 -17 -46t-40 -26q30 -8 51 -32t21 -56q0 -55 -40 -82t-125 -27t-125 27zM197 75q10 8 10 26q0 15 -9 25.5t-27 10.5q-17 0 -26 -10.5t-9 -25.5
q0 -17 10.5 -25.5t24.5 -8.5q16 0 26 8zM202 -66.5q10 12.5 10 31.5q0 13 -10.5 24.5t-30.5 11.5t-31 -11.5t-11 -24.5q0 -19 10.5 -31.5t31.5 -12.5t31 12.5z" />
    <glyph glyph-name="nine.inferior" unicode="&#x2089;" horiz-adv-x="349" 
d="M83 -150.5q-20 3.5 -32 9.5v78q38 -12 65 -12q31 0 57.5 20t26.5 61q-11 -15 -30 -24t-59 -9t-69.5 28.5t-29.5 81.5q0 62 37 96.5t109 34.5q90 0 129 -42t39 -128q0 -119 -57.5 -158.5t-144.5 -39.5q-21 0 -41 3.5zM184 51.5q10 10.5 15 23.5q0 29 -8 49t-23 20
q-12 0 -20.5 -16t-8.5 -35q0 -28 7 -40t18 -12q10 0 20 10.5z" />
    <glyph glyph-name="zero.superior" unicode="&#x2070;" horiz-adv-x="380" 
d="M56 504q-41 45 -41 139q0 93 41.5 138.5t133.5 45.5q93 0 134 -45.5t41 -138.5q0 -94 -41 -139t-134 -45t-134 45zM226 577q13 18 13 66t-13.5 66.5t-35.5 18.5q-49 0 -49 -85q0 -84 49 -84q23 0 36 18z" />
    <glyph glyph-name="one.superior" unicode="&#xb9;" horiz-adv-x="250" 
d="M92 821h103v-359h-120v233l-58 -32v111z" />
    <glyph glyph-name="two.superior" unicode="&#xb2;" horiz-adv-x="339" 
d="M309 576v-113h-266v73l34 23q51 35 78 61.5t27 58.5q0 26 -14.5 39t-34.5 13q-28 0 -45.5 -8t-42.5 -26v94q59 36 112 36q80 0 115 -33t35 -82q0 -41 -29 -76.5t-80 -59.5h111z" />
    <glyph glyph-name="three.superior" unicode="&#xb3;" horiz-adv-x="335" 
d="M40 488v89q6 -3 24.5 -15t32.5 -16.5t28 -4.5q24 0 38.5 10.5t14.5 26.5q0 17 -12 28.5t-42 11.5h-39v66h40q19 0 28 8.5t9 21.5t-14.5 20t-32.5 7q-30 0 -68 -19v78q49 26 98 26q54 0 99 -23.5t45 -75.5q0 -25 -17.5 -45.5t-38.5 -24.5q32 -9 51.5 -34.5t19.5 -59.5
q0 -58 -47.5 -81.5t-107.5 -23.5q-47 0 -109 30z" />
    <glyph glyph-name="four.superior" unicode="&#x2074;" horiz-adv-x="343" 
d="M290 633h43v-89h-43v-81h-110v81h-156v81l157 197h109v-189zM122 633h58v76z" />
    <glyph glyph-name="five.superior" unicode="&#x2075;" horiz-adv-x="326" 
d="M54 482v94q40 -26 84 -26q25 0 36 10t11 30q0 17 -12.5 27t-30.5 10q-19 0 -45 -14l-51 35l20 174h222v-93h-142l-2 -31q8 1 47 1q48 0 84 -28t36 -86q0 -66 -37.5 -96.5t-102.5 -30.5q-66 0 -117 24z" />
    <glyph glyph-name="six.superior" unicode="&#x2076;" horiz-adv-x="347" 
d="M51 500q-39 42 -39 128q0 119 57.5 158.5t144.5 39.5q21 0 41 -3.5t32 -9.5v-78q-38 12 -65 12q-31 0 -57.5 -20t-26.5 -61q11 15 30 24t59 9t69.5 -28.5t29.5 -81.5q0 -62 -37 -96.5t-109 -34.5q-90 0 -129 42zM190.5 544q8.5 16 8.5 35q0 28 -7 40t-18 12
q-10 0 -20 -10.5t-15 -23.5q0 -29 8 -49t23 -20q12 0 20.5 16z" />
    <glyph glyph-name="seven.superior" unicode="&#x2077;" horiz-adv-x="322" 
d="M35 821h272v-58l-119 -301h-137l110 247h-126v112z" />
    <glyph glyph-name="eight.superior" unicode="&#x2078;" horiz-adv-x="343" 
d="M46 485q-40 27 -40 82q0 32 21 56t51 32q-23 7 -40.5 26t-17.5 46q0 51 36 75t115 24t114.5 -24t35.5 -75q0 -27 -17 -46t-40 -26q30 -8 51 -32t21 -56q0 -55 -40 -82t-125 -27t-125 27zM197 688q10 8 10 26q0 15 -9 25.5t-27 10.5q-17 0 -26 -10.5t-9 -25.5
q0 -17 10.5 -25.5t24.5 -8.5q16 0 26 8zM202 546.5q10 12.5 10 31.5q0 13 -10.5 24.5t-30.5 11.5t-31 -11.5t-11 -24.5q0 -19 10.5 -31.5t31.5 -12.5t31 12.5z" />
    <glyph glyph-name="nine.superior" unicode="&#x2079;" horiz-adv-x="349" 
d="M83 461.5q-20 3.5 -32 9.5v78q38 -12 65 -12q31 0 57.5 20t26.5 61q-11 -15 -30 -24t-59 -9t-69.5 28.5t-29.5 81.5q0 62 37 96.5t109 34.5q90 0 129 -42t39 -128q0 -119 -57.5 -158.5t-144.5 -39.5q-21 0 -41 3.5zM184 663.5q10 10.5 15 23.5q0 29 -8 49t-23 20
q-12 0 -20.5 -16t-8.5 -35q0 -28 7 -40t18 -12q10 0 20 10.5z" />
    <glyph glyph-name="zero.zero" horiz-adv-x="675" 
d="M612 518.5q28 -74.5 28 -184.5q0 -177 -72.5 -262.5t-230.5 -85.5q-44 0 -86 8l-40 -92h-124l58 135q-56 41 -83 114.5t-27 182.5q0 176 73 262t229 86q47 0 82 -7l35 81h125l-53 -123q58 -40 86 -114.5zM243 266l110 255q-5 1 -16 1q-44 0 -70.5 -39.5t-26.5 -148.5
q0 -38 3 -68zM409 184.5q27 39.5 27 149.5q0 43 -5 78l-114 -265q12 -2 20 -2q45 0 72 39.5z" />
    <glyph glyph-name="zero.dnom" horiz-adv-x="380" 
d="M56 31q-41 45 -41 139q0 93 41.5 138.5t133.5 45.5q93 0 134 -45.5t41 -138.5q0 -94 -41 -139t-134 -45t-134 45zM226 104q13 18 13 66t-13.5 66.5t-35.5 18.5q-49 0 -49 -85q0 -84 49 -84q23 0 36 18z" />
    <glyph glyph-name="one.dnom" horiz-adv-x="250" 
d="M92 359h103v-359h-120v233l-58 -32v111z" />
    <glyph glyph-name="two.dnom" horiz-adv-x="339" 
d="M309 113v-113h-266v73l34 23q51 35 78 61.5t27 58.5q0 26 -14.5 39t-34.5 13q-28 0 -45.5 -8t-42.5 -26v94q59 36 112 36q80 0 115 -33t35 -82q0 -41 -29 -76.5t-80 -59.5h111z" />
    <glyph glyph-name="three.dnom" horiz-adv-x="335" 
d="M40 25v89q6 -3 24.5 -15t32.5 -16.5t28 -4.5q24 0 38.5 10.5t14.5 26.5q0 17 -12 28.5t-42 11.5h-39v66h40q19 0 28 8.5t9 21.5t-14.5 20t-32.5 7q-30 0 -68 -19v78q49 26 98 26q54 0 99 -23.5t45 -75.5q0 -25 -17.5 -45.5t-38.5 -24.5q32 -9 51.5 -34.5t19.5 -59.5
q0 -58 -47.5 -81.5t-107.5 -23.5q-47 0 -109 30z" />
    <glyph glyph-name="four.dnom" horiz-adv-x="343" 
d="M290 170h43v-89h-43v-81h-110v81h-156v81l157 197h109v-189zM122 170h58v76z" />
    <glyph glyph-name="five.dnom" horiz-adv-x="326" 
d="M54 10v94q40 -26 84 -26q25 0 36 10t11 30q0 17 -12.5 27t-30.5 10q-19 0 -45 -14l-51 35l20 174h222v-93h-142l-2 -31q8 1 47 1q48 0 84 -28t36 -86q0 -66 -37.5 -96.5t-102.5 -30.5q-66 0 -117 24z" />
    <glyph glyph-name="six.dnom" horiz-adv-x="347" 
d="M51 37q-39 42 -39 128q0 119 57.5 158.5t144.5 39.5q21 0 41 -3.5t32 -9.5v-78q-38 12 -65 12q-31 0 -57.5 -20t-26.5 -61q11 15 30 24t59 9t69.5 -28.5t29.5 -81.5q0 -62 -37 -96.5t-109 -34.5q-90 0 -129 42zM190.5 81q8.5 16 8.5 35q0 28 -7 40t-18 12
q-10 0 -20 -10.5t-15 -23.5q0 -29 8 -49t23 -20q12 0 20.5 16z" />
    <glyph glyph-name="seven.dnom" horiz-adv-x="322" 
d="M35 359h272v-58l-119 -301h-137l110 247h-126v112z" />
    <glyph glyph-name="eight.dnom" horiz-adv-x="343" 
d="M46 22q-40 27 -40 82q0 32 21 56t51 32q-23 7 -40.5 26t-17.5 46q0 51 36 75t115 24t114.5 -24t35.5 -75q0 -27 -17 -46t-40 -26q30 -8 51 -32t21 -56q0 -55 -40 -82t-125 -27t-125 27zM197 225q10 8 10 26q0 15 -9 25.5t-27 10.5q-17 0 -26 -10.5t-9 -25.5
q0 -17 10.5 -25.5t24.5 -8.5q16 0 26 8zM202 83.5q10 12.5 10 31.5q0 13 -10.5 24.5t-30.5 11.5t-31 -11.5t-11 -24.5q0 -19 10.5 -31.5t31.5 -12.5t31 12.5z" />
    <glyph glyph-name="nine.dnom" horiz-adv-x="349" 
d="M83 -10.5q-20 3.5 -32 9.5v78q38 -12 65 -12q31 0 57.5 20t26.5 61q-11 -15 -30 -24t-59 -9t-69.5 28.5t-29.5 81.5q0 62 37 96.5t109 34.5q90 0 129 -42t39 -128q0 -119 -57.5 -158.5t-144.5 -39.5q-21 0 -41 3.5zM184 191.5q10 10.5 15 23.5q0 29 -8 49t-23 20
q-12 0 -20.5 -16t-8.5 -35q0 -28 7 -40t18 -12q10 0 20 10.5z" />
    <glyph glyph-name="zero.numr" horiz-adv-x="380" 
d="M56 357q-41 45 -41 139q0 93 41.5 138.5t133.5 45.5q93 0 134 -45.5t41 -138.5q0 -94 -41 -139t-134 -45t-134 45zM226 430q13 18 13 66t-13.5 66.5t-35.5 18.5q-49 0 -49 -85q0 -84 49 -84q23 0 36 18z" />
    <glyph glyph-name="one.numr" horiz-adv-x="250" 
d="M92 671h103v-359h-120v233l-58 -32v111z" />
    <glyph glyph-name="two.numr" horiz-adv-x="339" 
d="M309 439v-113h-266v73l34 23q51 35 78 61.5t27 58.5q0 26 -14.5 39t-34.5 13q-28 0 -45.5 -8t-42.5 -26v94q59 36 112 36q80 0 115 -33t35 -82q0 -41 -29 -76.5t-80 -59.5h111z" />
    <glyph glyph-name="three.numr" horiz-adv-x="335" 
d="M40 351v89q6 -3 24.5 -15t32.5 -16.5t28 -4.5q24 0 38.5 10.5t14.5 26.5q0 17 -12 28.5t-42 11.5h-39v66h40q19 0 28 8.5t9 21.5t-14.5 20t-32.5 7q-30 0 -68 -19v78q49 26 98 26q54 0 99 -23.5t45 -75.5q0 -25 -17.5 -45.5t-38.5 -24.5q32 -9 51.5 -34.5t19.5 -59.5
q0 -58 -47.5 -81.5t-107.5 -23.5q-47 0 -109 30z" />
    <glyph glyph-name="four.numr" horiz-adv-x="343" 
d="M290 482h43v-89h-43v-81h-110v81h-156v81l157 197h109v-189zM122 482h58v76z" />
    <glyph glyph-name="five.numr" horiz-adv-x="326" 
d="M54 322v94q40 -26 84 -26q25 0 36 10t11 30q0 17 -12.5 27t-30.5 10q-19 0 -45 -14l-51 35l20 174h222v-93h-142l-2 -31q8 1 47 1q48 0 84 -28t36 -86q0 -66 -37.5 -96.5t-102.5 -30.5q-66 0 -117 24z" />
    <glyph glyph-name="six.numr" horiz-adv-x="347" 
d="M51 363q-39 42 -39 128q0 119 57.5 158.5t144.5 39.5q21 0 41 -3.5t32 -9.5v-78q-38 12 -65 12q-31 0 -57.5 -20t-26.5 -61q11 15 30 24t59 9t69.5 -28.5t29.5 -81.5q0 -62 -37 -96.5t-109 -34.5q-90 0 -129 42zM190.5 407q8.5 16 8.5 35q0 28 -7 40t-18 12
q-10 0 -20 -10.5t-15 -23.5q0 -29 8 -49t23 -20q12 0 20.5 16z" />
    <glyph glyph-name="seven.numr" horiz-adv-x="322" 
d="M35 671h272v-58l-119 -301h-137l110 247h-126v112z" />
    <glyph glyph-name="eight.numr" horiz-adv-x="343" 
d="M46 348q-40 27 -40 82q0 32 21 56t51 32q-23 7 -40.5 26t-17.5 46q0 51 36 75t115 24t114.5 -24t35.5 -75q0 -27 -17 -46t-40 -26q30 -8 51 -32t21 -56q0 -55 -40 -82t-125 -27t-125 27zM197 551q10 8 10 26q0 15 -9 25.5t-27 10.5q-17 0 -26 -10.5t-9 -25.5
q0 -17 10.5 -25.5t24.5 -8.5q16 0 26 8zM202 409.5q10 12.5 10 31.5q0 13 -10.5 24.5t-30.5 11.5t-31 -11.5t-11 -24.5q0 -19 10.5 -31.5t31.5 -12.5t31 12.5z" />
    <glyph glyph-name="nine.numr" horiz-adv-x="349" 
d="M83 315.5q-20 3.5 -32 9.5v78q38 -12 65 -12q31 0 57.5 20t26.5 61q-11 -15 -30 -24t-59 -9t-69.5 28.5t-29.5 81.5q0 62 37 96.5t109 34.5q90 0 129 -42t39 -128q0 -119 -57.5 -158.5t-144.5 -39.5q-21 0 -41 3.5zM184 517.5q10 10.5 15 23.5q0 29 -8 49t-23 20
q-12 0 -20.5 -16t-8.5 -35q0 -28 7 -40t18 -12q10 0 20 10.5z" />
    <glyph glyph-name="fraction" unicode="&#x2044;" horiz-adv-x="392" 
d="M-71 -22l407 707h124l-407 -707h-124z" />
    <glyph glyph-name="onehalf" unicode="&#xbd;" horiz-adv-x="759" 
d="M92 671h103v-359h-120v233l-58 -32v111zM59 -22l407 707h124l-407 -707h-124zM709 113v-113h-266v73l34 23q51 35 78 61.5t27 58.5q0 26 -14.5 39t-34.5 13q-28 0 -45.5 -8t-42.5 -26v94q59 36 112 36q80 0 115 -33t35 -82q0 -41 -29 -76.5t-80 -59.5h111z" />
    <glyph glyph-name="uni2153" unicode="&#x2153;" horiz-adv-x="770" 
d="M92 671h103v-359h-120v233l-58 -32v111zM59 -22l407 707h124l-407 -707h-124zM456 25v89q6 -3 24.5 -15t32.5 -16.5t28 -4.5q24 0 38.5 10.5t14.5 26.5q0 17 -12 28.5t-42 11.5h-39v66h40q19 0 28 8.5t9 21.5t-14.5 20t-32.5 7q-30 0 -68 -19v78q49 26 98 26
q54 0 99 -23.5t45 -75.5q0 -25 -17.5 -45.5t-38.5 -24.5q32 -9 51.5 -34.5t19.5 -59.5q0 -58 -47.5 -81.5t-107.5 -23.5q-47 0 -109 30z" />
    <glyph glyph-name="onequarter" unicode="&#xbc;" horiz-adv-x="733" 
d="M92 671h103v-359h-120v233l-58 -32v111zM59 -22l407 707h124l-407 -707h-124zM640 170h43v-89h-43v-81h-110v81h-156v81l157 197h109v-189zM472 170h58v76z" />
    <glyph glyph-name="threequarters" unicode="&#xbe;" horiz-adv-x="799" 
d="M40 351v89q6 -3 24.5 -15t32.5 -16.5t28 -4.5q24 0 38.5 10.5t14.5 26.5q0 17 -12 28.5t-42 11.5h-39v66h40q19 0 28 8.5t9 21.5t-14.5 20t-32.5 7q-30 0 -68 -19v78q49 26 98 26q54 0 99 -23.5t45 -75.5q0 -25 -17.5 -45.5t-38.5 -24.5q32 -9 51.5 -34.5t19.5 -59.5
q0 -58 -47.5 -81.5t-107.5 -23.5q-47 0 -109 30zM109 -22l407 707h124l-407 -707h-124zM706 170h43v-89h-43v-81h-110v81h-156v81l157 197h109v-189zM538 170h58v76z" />
    <glyph glyph-name="oneeighth" unicode="&#x215b;" horiz-adv-x="801" 
d="M92 671h103v-359h-120v233l-58 -32v111zM59 -22l407 707h124l-407 -707h-124zM471 22q-40 27 -40 82q0 32 21 56t51 32q-23 7 -40.5 26t-17.5 46q0 51 36 75t115 24t114.5 -24t35.5 -75q0 -27 -17 -46t-40 -26q30 -8 51 -32t21 -56q0 -55 -40 -82t-125 -27t-125 27z
M622 225q10 8 10 26q0 15 -9 25.5t-27 10.5q-17 0 -26 -10.5t-9 -25.5q0 -17 10.5 -25.5t24.5 -8.5q16 0 26 8zM627 83.5q10 12.5 10 31.5q0 13 -10.5 24.5t-30.5 11.5t-31 -11.5t-11 -24.5q0 -19 10.5 -31.5t31.5 -12.5t31 12.5z" />
    <glyph glyph-name="threeeighths" unicode="&#x215c;" horiz-adv-x="871" 
d="M40 351v89q6 -3 24.5 -15t32.5 -16.5t28 -4.5q24 0 38.5 10.5t14.5 26.5q0 17 -12 28.5t-42 11.5h-39v66h40q19 0 28 8.5t9 21.5t-14.5 20t-32.5 7q-30 0 -68 -19v78q49 26 98 26q54 0 99 -23.5t45 -75.5q0 -25 -17.5 -45.5t-38.5 -24.5q32 -9 51.5 -34.5t19.5 -59.5
q0 -58 -47.5 -81.5t-107.5 -23.5q-47 0 -109 30zM123 -22l407 707h124l-407 -707h-124zM541 22q-40 27 -40 82q0 32 21 56t51 32q-23 7 -40.5 26t-17.5 46q0 51 36 75t115 24t114.5 -24t35.5 -75q0 -27 -17 -46t-40 -26q30 -8 51 -32t21 -56q0 -55 -40 -82t-125 -27t-125 27
zM692 225q10 8 10 26q0 15 -9 25.5t-27 10.5q-17 0 -26 -10.5t-9 -25.5q0 -17 10.5 -25.5t24.5 -8.5q16 0 26 8zM697 83.5q10 12.5 10 31.5q0 13 -10.5 24.5t-30.5 11.5t-31 -11.5t-11 -24.5q0 -19 10.5 -31.5t31.5 -12.5t31 12.5z" />
    <glyph glyph-name="fiveeighths" unicode="&#x215d;" horiz-adv-x="891" 
d="M54 322v94q40 -26 84 -26q25 0 36 10t11 30q0 17 -12.5 27t-30.5 10q-19 0 -45 -14l-51 35l20 174h222v-93h-142l-2 -31q8 1 47 1q48 0 84 -28t36 -86q0 -66 -37.5 -96.5t-102.5 -30.5q-66 0 -117 24zM149 -22l407 707h124l-407 -707h-124zM561 22q-40 27 -40 82
q0 32 21 56t51 32q-23 7 -40.5 26t-17.5 46q0 51 36 75t115 24t114.5 -24t35.5 -75q0 -27 -17 -46t-40 -26q30 -8 51 -32t21 -56q0 -55 -40 -82t-125 -27t-125 27zM712 225q10 8 10 26q0 15 -9 25.5t-27 10.5q-17 0 -26 -10.5t-9 -25.5q0 -17 10.5 -25.5t24.5 -8.5
q16 0 26 8zM717 83.5q10 12.5 10 31.5q0 13 -10.5 24.5t-30.5 11.5t-31 -11.5t-11 -24.5q0 -19 10.5 -31.5t31.5 -12.5t31 12.5z" />
    <glyph glyph-name="seveneighths" unicode="&#x215e;" horiz-adv-x="844" 
d="M35 671h272v-58l-119 -301h-137l110 247h-126v112zM88 -22l407 707h124l-407 -707h-124zM514 22q-40 27 -40 82q0 32 21 56t51 32q-23 7 -40.5 26t-17.5 46q0 51 36 75t115 24t114.5 -24t35.5 -75q0 -27 -17 -46t-40 -26q30 -8 51 -32t21 -56q0 -55 -40 -82t-125 -27
t-125 27zM665 225q10 8 10 26q0 15 -9 25.5t-27 10.5q-17 0 -26 -10.5t-9 -25.5q0 -17 10.5 -25.5t24.5 -8.5q16 0 26 8zM670 83.5q10 12.5 10 31.5q0 13 -10.5 24.5t-30.5 11.5t-31 -11.5t-11 -24.5q0 -19 10.5 -31.5t31.5 -12.5t31 12.5z" />
    <glyph glyph-name="asterisk" unicode="*" horiz-adv-x="413" 
d="M170 460l6 64l-54 -39l-38 68l77 28l-77 28l38 68l54 -39l-6 64h78l-5 -64l53 39l38 -68l-76 -28l76 -28l-38 -68l-53 39l5 -64h-78z" />
    <glyph glyph-name="backslash" unicode="\" horiz-adv-x="430" 
d="M331 -98l-368 854h125l367 -854h-124z" />
    <glyph glyph-name="periodcentered" unicode="&#xb7;" horiz-adv-x="362" 
d="M105 205v138h144v-138h-144z" />
    <glyph glyph-name="bullet" unicode="&#x2022;" horiz-adv-x="530" 
d="M175 168q-42 24 -66.5 65.5t-24.5 91.5t24.5 91.5t66.5 65.5t91 24t90.5 -24t65.5 -65.5t24 -91.5t-24 -91.5t-65.5 -65.5t-90.5 -24t-91 24z" />
    <glyph glyph-name="colon" unicode=":" horiz-adv-x="424" 
d="M137 327v138h144v-138h-144zM137 35v138h144v-138h-144z" />
    <glyph glyph-name="comma" unicode="," horiz-adv-x="367" 
d="M74 -112l74 196h139l-96 -196h-117z" />
    <glyph glyph-name="ellipsis" unicode="&#x2026;" horiz-adv-x="903" 
d="M107 0v138h144v-138h-144zM381 0v138h144v-138h-144zM656 0v138h144v-138h-144z" />
    <glyph glyph-name="exclam" unicode="!" horiz-adv-x="431" 
d="M158 191l-22 476h173l-22 -476h-129zM145 0v128h155v-128h-155z" />
    <glyph glyph-name="exclamdown" unicode="&#xa1;" horiz-adv-x="431" 
d="M141 371v128h155v-128h-155zM132 -168l22 476h129l22 -476h-173z" />
    <glyph glyph-name="numbersign" unicode="#" horiz-adv-x="629" 
d="M127 19l19 102h-72v91h86l21 118h-80v90h95l18 102h96l-18 -102h106l18 102h96l-19 -102h61v-90h-75l-21 -118h70v-91h-85l-18 -102h-96l18 102h-107l-17 -102h-96zM256 212h108l19 118h-106z" />
    <glyph glyph-name="period" unicode="." horiz-adv-x="264" 
d="M50 0v158h164v-158h-164z" />
    <glyph glyph-name="question" unicode="?" horiz-adv-x="525" 
d="M174 205q0 50 13.5 86t32.5 58.5t48 48.5q28 26 40.5 43.5t12.5 40.5q0 42 -25 55t-66 13q-38 0 -79 -13t-71 -37v128q29 20 76 33.5t96 13.5q108 0 157.5 -56t49.5 -138q0 -49 -19 -79t-57 -65q-36 -34 -54 -62t-18 -73v-10h-137v13zM165 0v128h155v-128h-155z" />
    <glyph glyph-name="questiondown" unicode="&#xbf;" horiz-adv-x="525" 
d="M219 371v128h155v-128h-155zM129.5 -120q-49.5 56 -49.5 138q0 49 19 79t57 65q36 34 54 62t18 73v10h137v-13q0 -50 -13.5 -86t-32.5 -58.5t-48 -48.5q-28 -26 -40.5 -43.5t-12.5 -40.5q0 -42 25 -55t66 -13q38 0 79 13t71 37v-128q-29 -20 -76 -33.5t-96 -13.5
q-108 0 -157.5 56z" />
    <glyph glyph-name="quotedbl" unicode="&#x22;" horiz-adv-x="439" 
d="M99 475l-18 201h124l-17 -201h-89zM251 475l-18 201h124l-17 -201h-89z" />
    <glyph glyph-name="quotesingle" unicode="'" horiz-adv-x="285" 
d="M99 475l-18 201h124l-17 -201h-89z" />
    <glyph glyph-name="semicolon" unicode=";" horiz-adv-x="319" 
d="M105 307v158h164v-158h-164zM35 -112l74 216h159l-116 -216h-117z" />
    <glyph glyph-name="slash" unicode="/" horiz-adv-x="463" 
d="M-14 -98l367 854h125l-368 -854h-124z" />
    <glyph glyph-name="underscore" unicode="_" horiz-adv-x="546" 
d="M0 -126v102h546v-102h-546z" />
    <glyph glyph-name="periodcentered.loclCAT.case" horiz-adv-x="362" 
d="M105 205v138h144v-138h-144z" />
    <glyph glyph-name="periodcentered.loclCAT" horiz-adv-x="362" 
d="M105 205v138h144v-138h-144z" />
    <glyph glyph-name="braceleft" unicode="{" horiz-adv-x="400" 
d="M148.5 -67q-53.5 42 -53.5 117v132q0 20 -11 32.5t-25 18t-14 4.5v116q0 -1 14 4.5t25 18t11 32.5v132q0 75 53.5 117t186.5 42h30v-160h-22q-32 0 -40 -16.5t-8 -49.5v-71q0 -46 -27.5 -72t-67.5 -35q40 -9 67.5 -35t27.5 -72v-71q0 -32 8 -49t40 -17h22v-160h-30
q-133 0 -186.5 42z" />
    <glyph glyph-name="braceright" unicode="}" horiz-adv-x="393" 
d="M45 51h22q32 0 40 17t8 49v71q0 46 27.5 72t67.5 35q-40 9 -67.5 35t-27.5 72v71q0 33 -8 49.5t-40 16.5h-22v160h30q133 0 186.5 -42t53.5 -117v-132q0 -20 11 -32.5t25 -18t14 -4.5v-116q0 1 -14 -4.5t-25 -18t-11 -32.5v-132q0 -75 -53.5 -117t-186.5 -42h-30v160z
" />
    <glyph glyph-name="bracketleft" unicode="[" horiz-adv-x="402" 
d="M65 -116v812h302v-160h-102v-491h102v-161h-302z" />
    <glyph glyph-name="bracketright" unicode="]" horiz-adv-x="415" 
d="M65 -116v160h102v491h-102v161h302v-812h-302z" />
    <glyph glyph-name="parenleft" unicode="(" horiz-adv-x="358" 
d="M82.5 66.5q-47.5 110.5 -47.5 239.5q0 128 47.5 239t115.5 179h145q-41 -81 -72 -188t-31 -230t31 -229.5t72 -189.5h-145q-68 69 -115.5 179.5z" />
    <glyph glyph-name="parenright" unicode=")" horiz-adv-x="358" 
d="M87 75q31 107 31 230t-31 229.5t-72 189.5h145q68 -69 115.5 -179.5t47.5 -239.5q0 -128 -47.5 -239t-115.5 -179h-145q41 81 72 188z" />
    <glyph glyph-name="emdash" unicode="&#x2014;" horiz-adv-x="891" 
d="M79 232v117h733v-117h-733z" />
    <glyph glyph-name="endash" unicode="&#x2013;" horiz-adv-x="560" 
d="M69 232v117h420v-117h-420z" />
    <glyph glyph-name="hyphen" unicode="-" horiz-adv-x="464" 
d="M79 251v117h305v-117h-305z" />
    <glyph glyph-name="uni00AD" unicode="&#xad;" horiz-adv-x="600" 
d="M79 251v117h305v-117h-305z" />
    <glyph glyph-name="guillemotleft" unicode="&#xab;" horiz-adv-x="658" 
d="M203 64l-169 191l169 190h165l-182 -190l182 -191h-165zM445 64l-169 191l169 190h165l-182 -190l182 -191h-165z" />
    <glyph glyph-name="guillemotright" unicode="&#xbb;" horiz-adv-x="671" 
d="M52 64l182 191l-182 190h165l169 -190l-169 -191h-165zM294 64l182 191l-182 190h165l169 -190l-169 -191h-165z" />
    <glyph glyph-name="guilsinglleft" unicode="&#x2039;" horiz-adv-x="400" 
d="M200 64l-169 191l169 190h165l-182 -190l182 -191h-165z" />
    <glyph glyph-name="guilsinglright" unicode="&#x203a;" horiz-adv-x="412" 
d="M39 64l182 191l-182 190h165l169 -190l-169 -191h-165z" />
    <glyph glyph-name="quotedblbase" unicode="&#x201e;" horiz-adv-x="516" 
d="M72 -112l74 196h139l-96 -196h-117zM246 -112l74 196h139l-96 -196h-117z" />
    <glyph glyph-name="quotedblleft" unicode="&#x201c;" horiz-adv-x="479" 
d="M144 480l-96 196h139l74 -196h-117zM318 480l-96 196h139l74 -196h-117z" />
    <glyph glyph-name="quotedblright" unicode="&#x201d;" horiz-adv-x="479" 
d="M48 480l74 196h139l-96 -196h-117zM222 480l74 196h139l-96 -196h-117z" />
    <glyph glyph-name="quoteleft" unicode="&#x2018;" horiz-adv-x="301" 
d="M143 480l-96 196h139l74 -196h-117z" />
    <glyph glyph-name="quoteright" unicode="&#x2019;" horiz-adv-x="301" 
d="M47 480l74 196h139l-96 -196h-117z" />
    <glyph glyph-name="quotesinglbase" unicode="&#x201a;" horiz-adv-x="341" 
d="M72 -112l74 196h139l-96 -196h-117z" />
    <glyph glyph-name="Euro" unicode="&#x20ac;" horiz-adv-x="716" 
d="M256 39q-81 46 -112 160h-96v93h81q-1 13 -1 42t1 43h-81v93h96q31 113 112.5 159t184.5 46q97 0 214 -47v-149q-54 26 -102.5 37t-101.5 11q-85 0 -121 -57h194v-93h-222q-2 -26 -2 -43q0 -16 2 -42h222v-93h-194q36 -58 121 -58q53 0 101.5 11t102.5 37v-149
q-117 -47 -214 -47q-104 0 -185 46z" />
    <glyph glyph-name="uni20B5" unicode="&#x20b5;" horiz-adv-x="633" 
d="M277.5 489q-40.5 -45 -40.5 -157q0 -110 41.5 -153.5t126.5 -43.5q34 0 80 16.5t98 51.5v-171q-26 -14 -64 -25t-79 -16v-92h-132v89q-278 28 -278 345q0 320 278 348v73h132v-76q72 -12 143 -43v-171q-100 70 -188 70q-77 0 -117.5 -45z" />
    <glyph glyph-name="cent" unicode="&#xa2;" horiz-adv-x="506" 
d="M476 123q-51 -31 -109 -39v-84h-132v88q-93 21 -149 87.5t-56 163.5q0 111 54 182.5t151 91.5v95h132v-92q67 -10 107 -30v-153q-47 21 -76 31t-60 10q-56 0 -91.5 -27.5t-35.5 -82.5q0 -68 32 -101.5t105 -33.5q57 0 128 45v-151z" />
    <glyph glyph-name="colonmonetary" unicode="&#x20a1;" horiz-adv-x="703" 
d="M429 136q73 9 159 67v-171q-38 -21 -100 -34t-116 -13h-20l-23 -44h-124l32 62q-20 5 -34 12l-39 -75h-124l72 139q-77 86 -77 254q0 175 83 263t254 88q28 0 69.5 -9.5t69.5 -24.5l-1 -40l-224 -434q11 -12 29 -22l259 504h124zM242 331l101 196q-49 -13 -75 -59.5
t-26 -135.5v-1z" />
    <glyph glyph-name="currency" unicode="&#xa4;" horiz-adv-x="492" 
d="M406 253l51 -53l-73 -73l-53 51q-41 -22 -87 -22q-43 0 -85 21l-51 -50l-73 73l49 50q-23 41 -23 89q0 46 22 87l-48 50l73 73l50 -49q41 22 86 22q48 0 89 -23l51 50l73 -73l-51 -52q21 -42 21 -85q0 -44 -21 -86zM289.5 288.5q18.5 19.5 18.5 50.5t-18.5 51t-46.5 20
t-46.5 -20t-18.5 -51t18.5 -50.5t46.5 -19.5t46.5 19.5z" />
    <glyph glyph-name="dollar" unicode="$" horiz-adv-x="586" 
d="M500.5 67q-50.5 -59 -135.5 -76v-91h-132v87q-109 6 -177 39v186q49 -38 108 -57.5t108 -19.5q35 0 54 11.5t19 40.5q0 21 -25 33.5t-84 31.5q-24 6 -59 18q-65 22 -103.5 64t-38.5 120q0 83 51 143.5t147 79.5v78h132v-73q42 -3 77.5 -13t72.5 -28v-190q-38 34 -94.5 59
t-100.5 25q-35 0 -57.5 -13.5t-22.5 -42.5q0 -27 24 -40t80 -29q5 -1 20 -5q95 -27 141 -68.5t46 -124.5q0 -86 -50.5 -145z" />
    <glyph glyph-name="dong" unicode="&#x20ab;" horiz-adv-x="447" 
d="M10 294q0 193 158 193q25 0 51 -3.5t33 -7.5v49h-69v95h69v47h133v-47h54v-95h-54v-234q0 -79 -45 -117t-142 -38q-188 0 -188 158zM240.5 247q11.5 7 11.5 17v116q-2 0 -12.5 3.5t-27.5 3.5q-38 0 -53.5 -17t-15.5 -58q0 -30 13 -51t43 -21t41.5 7zM16 0v96h381v-96
h-381z" />
    <glyph glyph-name="florin" unicode="&#x192;" horiz-adv-x="360" 
d="M4 -117v105q27 -3 36 -3q25 0 39.5 4t24.5 23t10 59v321h-84v113h84v12q9 173 175 173q15 0 35 -1.5t30 -4.5v-107q-18 5 -36 5q-74 0 -74 -65v-12h110v-113h-110v-321q0 -95 -44 -144.5t-130 -49.5q-36 0 -66 6z" />
    <glyph glyph-name="franc" unicode="&#x20a3;" horiz-adv-x="583" 
d="M538 517h-273v-128h234v-151h-234v-53h64v-108h-64v-77h-200v77h-60v108h60v482h473v-150z" />
    <glyph glyph-name="uni20B2" unicode="&#x20b2;" horiz-adv-x="714" 
d="M649 65q-100 -58 -204 -74v-91h-132v88q-131 13 -204.5 96t-73.5 249q0 163 74 248.5t204 99.5v74h132v-76q85 -10 173 -45v-178q-74 40 -123.5 58.5t-101.5 18.5q-75 0 -114 -43.5t-39 -155.5q0 -108 39 -154t103 -46q48 0 67 13v87h-89v150h289v-319z" />
    <glyph glyph-name="uni20AD" unicode="&#x20ad;" horiz-adv-x="708" 
d="M446 0l-147 241l-33 -38v-203h-201v316h-45v108h45v243h201v-236l156 236h252l-214 -243h137v-108h-107l203 -316h-247z" />
    <glyph glyph-name="lira" unicode="&#x20a4;" horiz-adv-x="600" 
d="M319 504q-25 -17 -25 -51v-22h136v-111h-136v-18h136v-111h-136v-34q45 -20 85 -22q30 0 60.5 11.5t67.5 36.5v-145q-28 -26 -57.5 -37t-63.5 -11q-41 0 -111 19q-35 9 -61 14t-51 5q-64 0 -114 -43v150q16 11 30 15.5t27 6.5t20 4v30h-77v111h77v18h-77v111h77v52
q0 50 21.5 93.5t69 71t121.5 27.5q79 0 169 -52v-160q-35 29 -65.5 43.5t-61.5 14.5q-36 0 -61 -17z" />
    <glyph glyph-name="uni20BA" unicode="&#x20ba;" horiz-adv-x="568" 
d="M415 151.5q47 16.5 98 51.5v-171q-38 -21 -100 -34t-116 -13q-148 0 -232 68v106l-47 -29v115l47 31v48l-47 -29v115l47 31v226h201v-96l98 64v-125l-98 -61v-43l98 64v-125l-98 -61v-133q10 -9 29 -13t38 -4q35 1 82 17.5z" />
    <glyph glyph-name="uni20BC" unicode="&#x20bc;" horiz-adv-x="740" 
d="M614.5 613q60.5 -63 60.5 -184v-428h-210v416q0 80 -37 108v-522h-132v521q-41 -32 -41 -107v-416h-190v428q0 119 62 183.5t169 77.5v79h132v-80q126 -13 186.5 -76z" />
    <glyph glyph-name="uni20A6" unicode="&#x20a6;" horiz-adv-x="725" 
d="M720 394v-108h-60v-286h-140l-229 286h-44v-286h-182v286h-60v108h60v273h162l209 -273h42v273h182v-273h60z" />
    <glyph glyph-name="peseta" unicode="&#x20a7;" horiz-adv-x="703" 
d="M701 383h-56q-18 -87 -84 -133.5t-169 -46.5h-127v-203h-200v383h-59v108h59v176h327q110 0 176 -43.5t80 -132.5h53v-108zM414 373q19 20 19 57q0 43 -19 65t-47 22h-102v-164h102q28 0 47 20z" />
    <glyph glyph-name="uni20B1" unicode="&#x20b1;" horiz-adv-x="686" 
d="M651 433q0 -5 -1 -15t-2 -17h53v-108h-95q-33 -44 -88 -67t-126 -23h-127v-203h-200v293h-59v108h59v32h-59v108h59v126h327q93 0 155 -31t87 -95h67v-108h-50zM414 373q19 20 19 57q0 43 -19 65t-47 22h-102v-164h102q28 0 47 20z" />
    <glyph glyph-name="uni20BD" unicode="&#x20bd;" horiz-adv-x="686" 
d="M583 612q68 -55 68 -167q0 -115 -69 -178.5t-190 -63.5h-127v-32h74v-108h-74v-63h-200v63h-50v108h50v73h-50v108h50v315h327q123 0 191 -55zM414 373q19 20 19 57q0 43 -19 65t-47 22h-102v-164h102q28 0 47 20z" />
    <glyph glyph-name="uni20B9" unicode="&#x20b9;" horiz-adv-x="517" 
d="M486 517h-50q9 -31 9 -69q0 -61 -33.5 -117t-95.5 -78l166 -253h-258l-115 213h-44v141h96q29 0 47.5 20t18.5 65q0 38 -19 58t-47 20h-96v150h421v-150z" />
    <glyph glyph-name="sterling" unicode="&#xa3;" horiz-adv-x="563" 
d="M319 504q-25 -17 -25 -51v-52h136v-131h-136v-113q50 -22 86 -22q30 0 60 11.5t67 36.5v-145q-52 -48 -119 -48q-25 0 -51 5t-61 14q-70 19 -112 19q-65 0 -115 -43v150q16 11 30 15.5t27 6.5t20 4v109h-77v131h77v82q0 50 21.5 93.5t69 71t121.5 27.5q79 0 169 -52v-160
q-35 29 -65.5 43.5t-61.5 14.5q-36 0 -61 -17z" />
    <glyph glyph-name="uni20A9" unicode="&#x20a9;" horiz-adv-x="999" 
d="M999 667l-66 -253h35v-108h-64l-80 -306h-197l-92 306h-45l-93 -306h-197l-80 306h-95v108h66l-66 253h220l45 -253h76l72 253h148l71 -253h77l45 253h220zM319 247l17 59h-27zM705 246l10 60h-27z" />
    <glyph glyph-name="yen" unicode="&#xa5;" horiz-adv-x="729" 
d="M283 0v105h-133v98h133v76h-133v98h67l-199 290h209l142 -254l142 254h209l-199 -290h67v-98h-133v-76h133v-98h-133v-105h-172z" />
    <glyph glyph-name="uni2219" unicode="&#x2219;" horiz-adv-x="362" 
d="M105 205v138h144v-138h-144z" />
    <glyph glyph-name="uni2215" unicode="&#x2215;" horiz-adv-x="392" 
d="M-71 -22l407 707h124l-407 -707h-124z" />
    <glyph glyph-name="plus" unicode="+" horiz-adv-x="551" 
d="M219 118v125h-126v112h126v126h112v-126h125v-112h-125v-125h-112z" />
    <glyph glyph-name="minus" unicode="&#x2212;" horiz-adv-x="583" 
d="M95 199v117h393v-117h-393z" />
    <glyph glyph-name="multiply" unicode="&#xd7;" horiz-adv-x="534" 
d="M72 75l140 181l-139 181h110l85 -109l86 109h109l-139 -181l139 -181h-109l-86 109l-85 -109h-111z" />
    <glyph glyph-name="divide" unicode="&#xf7;" horiz-adv-x="628" 
d="M254 382v117h123v-117h-123zM92 204v113h447v-113h-447zM254 23v117h123v-117h-123z" />
    <glyph glyph-name="equal" unicode="=" horiz-adv-x="638" 
d="M122 341v117h393v-117h-393zM122 139v117h393v-117h-393z" />
    <glyph glyph-name="notequal" unicode="&#x2260;" horiz-adv-x="611" 
d="M182 -25l-76 45l54 91h-51v117h120l50 85h-170v117h239l80 136l76 -45l-54 -91h52v-117h-121l-50 -85h171v-117h-240z" />
    <glyph glyph-name="greater" unicode="&#x3e;" horiz-adv-x="660" 
d="M116 35v136l246 97l-246 96v136l421 -187v-91z" />
    <glyph glyph-name="less" unicode="&#x3c;" horiz-adv-x="668" 
d="M541 35l-421 187v91l421 187v-136l-246 -96l246 -97v-136z" />
    <glyph glyph-name="greaterequal" unicode="&#x2265;" horiz-adv-x="580" 
d="M107 234v113l206 76l-206 75v112l377 -146v-83zM107 96v105h377v-105h-377z" />
    <glyph glyph-name="lessequal" unicode="&#x2264;" horiz-adv-x="580" 
d="M484 234l-377 147v83l377 146v-112l-206 -75l206 -76v-113zM107 96v105h377v-105h-377z" />
    <glyph glyph-name="plusminus" unicode="&#xb1;" horiz-adv-x="585" 
d="M241 172v125h-126v112h126v126h112v-126h125v-112h-125v-125h-112zM115 6v105h363v-105h-363z" />
    <glyph glyph-name="approxequal" unicode="&#x2248;" horiz-adv-x="636" 
d="M97 418q39 42 94 42q27 0 55 -8t68 -24t68 -24.5t55 -8.5q56 0 98 46v-110q-38 -41 -93 -41q-27 0 -56 8.5t-67 24.5q-42 16 -69.5 24t-54.5 8q-56 0 -98 -46v109zM97 237q39 42 94 42q27 0 55 -8t68 -24t68 -24.5t55 -8.5q56 0 98 46v-110q-38 -41 -93 -41
q-27 0 -56 8.5t-67 24.5q-42 16 -69.5 24t-54.5 8q-56 0 -98 -46v109z" />
    <glyph glyph-name="asciitilde" unicode="~" horiz-adv-x="523" 
d="M98 314q32 37 73 37q19 0 38.5 -6.5t51.5 -20.5q31 -14 51.5 -21t40.5 -7q40 0 72 37v-91q-32 -37 -72 -37q-19 0 -38.5 6.5t-51.5 20.5q-31 14 -51.5 21t-40.5 7q-41 0 -73 -37v91z" />
    <glyph glyph-name="logicalnot" unicode="&#xac;" horiz-adv-x="635" 
d="M435 144v83h-338v107h441v-190h-103z" />
    <glyph glyph-name="infinity" unicode="&#x221e;" horiz-adv-x="735" 
d="M139.5 224.5q-34.5 16.5 -58 51.5t-23.5 89t23.5 90t58 52.5t67.5 16.5q89 0 159 -90q76 90 159 90q34 0 68.5 -16.5t58 -52.5t23.5 -90t-23.5 -89t-58 -51.5t-68.5 -16.5q-84 0 -159 89q-33 -41 -71 -65t-88 -24q-33 0 -67.5 16.5zM267.5 307q26.5 22 52.5 58
q-26 36 -52.5 58.5t-55.5 22.5q-18 0 -41.5 -15.5t-23.5 -65.5t23.5 -65t41.5 -15q29 0 55.5 22zM563 300q24 15 24 65t-24 65.5t-41 15.5q-56 0 -110 -81q55 -80 110 -80q17 0 41 15z" />
    <glyph glyph-name="integral" unicode="&#x222b;" horiz-adv-x="370" 
d="M10 -116v105q27 -3 36 -3q25 0 39.5 4t24.5 23t10 59v427q0 192 176 192q26 0 64 -7v-106q-6 2 -17 3.5t-19 1.5q-25 0 -39.5 -4t-24.5 -22.5t-10 -57.5v-427q0 -96 -44 -145t-130 -49q-36 0 -66 6z" />
    <glyph glyph-name="uni2206" unicode="&#x2206;" horiz-adv-x="729" 
d="M27 0l307 667h60l308 -667h-675zM220 131h288l-144 324z" />
    <glyph glyph-name="product" unicode="&#x220f;" horiz-adv-x="728" 
d="M158 -127v518h-120v126h651v-126h-121v-518h-125v518h-159v-518h-126z" />
    <glyph glyph-name="summation" unicode="&#x2211;" horiz-adv-x="582" 
d="M77 0v112l144 222l-144 225v108h445v-126h-281l131 -207l-131 -207h281v-127h-445z" />
    <glyph glyph-name="radical" unicode="&#x221a;" horiz-adv-x="779" 
d="M351 0l-121 282h-136v102h208l109 -279l219 562h113l-264 -667h-128z" />
    <glyph glyph-name="uni00B5" unicode="&#xb5;" horiz-adv-x="647" 
d="M99 499h172v-321q0 -24 16 -39.5t68 -15.5q28 0 50 6v370h172v-446q-36 -18 -99.5 -39t-148.5 -21q-28 0 -58 5v-208h-172v709z" />
    <glyph glyph-name="partialdiff" unicode="&#x2202;" horiz-adv-x="620" 
d="M171 27.5q-55 35.5 -80.5 91t-25.5 116.5q0 121 64.5 163t167.5 42q13 0 45.5 -3.5t47.5 -9.5q-7 52 -54 77t-103 25q-31 0 -75 -9v147q42 9 89 9q67 0 135.5 -26t122 -107.5t53.5 -233.5q0 -157 -62.5 -237t-184.5 -80q-85 0 -140 35.5zM349.5 160q17.5 20 28 60.5
t9.5 100.5q-26 11 -74 11q-38 0 -56.5 -29t-18.5 -67q0 -29 15.5 -62.5t57.5 -33.5q21 0 38.5 20z" />
    <glyph glyph-name="percent" unicode="%" horiz-adv-x="930" 
d="M56 357q-41 45 -41 139q0 93 41.5 138.5t133.5 45.5q93 0 134 -45.5t41 -138.5q0 -94 -41 -139t-134 -45t-134 45zM226 430q13 18 13 66t-13.5 66.5t-35.5 18.5q-49 0 -49 -85q0 -84 49 -84q23 0 36 18zM606 31q-41 45 -41 139q0 93 41.5 138.5t133.5 45.5
q93 0 134 -45.5t41 -138.5q0 -94 -41 -139t-134 -45t-134 45zM776 104q13 18 13 66t-13.5 66.5t-35.5 18.5q-49 0 -49 -85q0 -84 49 -84q23 0 36 18zM189 -22l407 707h124l-407 -707h-124z" />
    <glyph glyph-name="perthousand" unicode="&#x2030;" horiz-adv-x="1280" 
d="M56 357q-41 45 -41 139q0 93 41.5 138.5t133.5 45.5q93 0 134 -45.5t41 -138.5q0 -94 -41 -139t-134 -45t-134 45zM226 430q13 18 13 66t-13.5 66.5t-35.5 18.5q-49 0 -49 -85q0 -84 49 -84q23 0 36 18zM566 31q-41 45 -41 139q0 93 41.5 138.5t133.5 45.5
q93 0 134 -45.5t41 -138.5q0 -94 -41 -139t-134 -45t-134 45zM736 104q13 18 13 66t-13.5 66.5t-35.5 18.5q-49 0 -49 -85q0 -84 49 -84q23 0 36 18zM956 31q-41 45 -41 139q0 93 41.5 138.5t133.5 45.5q93 0 134 -45.5t41 -138.5q0 -94 -41 -139t-134 -45t-134 45z
M1126 104q13 18 13 66t-13.5 66.5t-35.5 18.5q-49 0 -49 -85q0 -84 49 -84q23 0 36 18zM165 -22l407 707h124l-407 -707h-124z" />
    <glyph glyph-name="lozenge" unicode="&#x25ca;" horiz-adv-x="636" 
d="M319 -36l-255 370l255 370l255 -370zM319 131l137 203l-137 204l-136 -204z" />
    <glyph glyph-name="at" unicode="@" horiz-adv-x="913" 
d="M261.5 -115.5q-75.5 34.5 -128 109t-52.5 188.5q0 118 63.5 214.5t162.5 151t200 54.5q73 0 150 -34.5t130.5 -108t53.5 -184.5q0 -64 -19 -122t-59 -94.5t-98 -36.5q-33 0 -55.5 20t-31.5 44q-15 -28 -50.5 -46t-85.5 -18q-76 0 -120 34.5t-44 94.5q0 59 48 103t178 44
q17 0 51 -2q0 10 -1 14q-3 25 -20.5 38t-58.5 13q-79 0 -139 -22l14 87q82 26 134 26q82 0 124 -38t42 -112q0 -18 -3 -40.5t-4 -31.5q-8 -50 -8 -80q0 -24 7.5 -42t32.5 -18q21 0 44.5 20.5t40.5 62.5t17 102q0 79 -41 138.5t-104 91t-128 31.5q-91 0 -173.5 -48.5
t-133 -131t-50.5 -177.5q0 -98 48.5 -157.5t109.5 -83.5t103 -24q126 0 229 51l-11 -73q-90 -42 -217 -42q-72 0 -147.5 34.5zM517 140.5q21 22.5 26 77.5q-13 1 -39 1q-64 0 -97 -17t-33 -49q0 -20 19 -27.5t49 -7.5q54 0 75 22.5z" />
    <glyph glyph-name="ampersand" unicode="&#x26;" horiz-adv-x="704" 
d="M450 0l-24 29q-60 -44 -176 -44q-62 0 -111 23t-76.5 64t-27.5 92q0 52 32 98.5t101 81.5l-14 17q-60 76 -60 135q0 48 31.5 91t87 69t123.5 26q66 0 115.5 -22t76.5 -60.5t27 -87.5q0 -42 -18.5 -73.5t-50 -56t-84.5 -56.5l69 -85q11 19 18 41.5t7 26.5h130
q-6 -33 -27 -78t-48 -87l118 -144h-219zM298.5 524q-14.5 -13 -14.5 -33q0 -23 32 -61l10 -12q31 19 44.5 35.5t13.5 36.5q0 22 -13 34.5t-36 12.5q-22 0 -36.5 -13zM338 136l-79 96q-22 -25 -22 -49q0 -27 11 -43.5t46 -16.5q21 0 44 13z" />
    <glyph glyph-name="paragraph" unicode="&#xb6;" horiz-adv-x="529" 
d="M350 181h-39q-132 0 -202 63t-70 181q0 117 70 179.5t202 62.5h173v-667h-134v181z" />
    <glyph glyph-name="section" unicode="&#xa7;" horiz-adv-x="609" 
d="M65 56v135q42 -38 84 -56.5t93 -18.5q32 0 58.5 8.5t26.5 28.5q0 12 -18 20t-62 22q-23 6 -60 19q-57 22 -91 52t-34 79q0 48 44.5 71t93.5 24q-13 1 -30 14t-29.5 33t-12.5 42q0 80 63 113.5t155 33.5q88 0 177 -51v-121q-44 25 -79 35t-73 10q-29 0 -56 -8.5t-27 -30.5
q0 -13 19 -21.5t71 -26.5q79 -26 125.5 -57.5t46.5 -88.5q0 -42 -37.5 -60t-77.5 -20q24 -13 36.5 -42.5t12.5 -59.5q0 -67 -58.5 -104.5t-160.5 -37.5q-104 0 -200 64zM380 296q10 5 10 13q0 11 -20 21t-53 20q-44 12 -55 17q-19 1 -30 -4t-11 -14t41 -26q27 -11 67 -24
q6 -3 12 -4.5t11 -3.5q18 0 28 5z" />
    <glyph glyph-name="copyright" unicode="&#xa9;" horiz-adv-x="778" 
d="M218.5 38q-78.5 46 -124.5 124.5t-46 170.5q0 93 46 171.5t124.5 124.5t170.5 46q93 0 171.5 -46t124.5 -124.5t46 -171.5q0 -92 -46 -170.5t-124.5 -124.5t-171.5 -46q-92 0 -170.5 46zM529 92.5q64 37.5 101.5 101.5t37.5 139q0 76 -37.5 140t-101.5 101.5t-140 37.5
q-75 0 -139 -37.5t-101.5 -101.5t-37.5 -140q0 -75 37.5 -139t101.5 -101.5t139 -37.5q76 0 140 37.5zM263 178q-53 44 -53 156t53 155.5t130 43.5q57 0 126 -27v-87q-60 28 -120 28q-40 0 -64 -25t-24 -88q0 -64 24 -88.5t64 -24.5q60 0 120 28v-87q-68 -28 -126 -28
q-77 0 -130 44z" />
    <glyph glyph-name="registered" unicode="&#xae;" horiz-adv-x="778" 
d="M219.5 38q-78.5 46 -124.5 124.5t-46 170.5q0 93 46 171.5t124.5 124.5t170.5 46q93 0 171.5 -46t124.5 -124.5t46 -171.5q0 -92 -46 -170.5t-124.5 -124.5t-171.5 -46q-92 0 -170.5 46zM530 92.5q64 37.5 101.5 101.5t37.5 139q0 76 -37.5 140t-101.5 101.5t-140 37.5
q-75 0 -139 -37.5t-101.5 -101.5t-37.5 -140q0 -75 37.5 -139t101.5 -101.5t139 -37.5q76 0 140 37.5zM243 528h154q71 0 114 -33t43 -93q0 -46 -21.5 -76t-57.5 -41l94 -146h-112l-72 130h-41v-130h-101v389zM403 345q20 0 35 14t15 36q0 23 -15 37.5t-35 14.5h-59v-102h59
z" />
    <glyph glyph-name="uniE194" unicode="&#xe194;" horiz-adv-x="778" 
d="M219.5 38q-78.5 46 -124.5 124.5t-46 170.5q0 93 46 171.5t124.5 124.5t170.5 46q93 0 171.5 -46t124.5 -124.5t46 -171.5q0 -92 -46 -170.5t-124.5 -124.5t-171.5 -46q-92 0 -170.5 46zM530 92.5q64 37.5 101.5 101t37.5 139.5t-37.5 140t-101.5 101.5t-140 37.5
q-75 0 -139 -37.5t-101.5 -101.5t-37.5 -140t37.5 -139.5t101.5 -101t139 -37.5q76 0 140 37.5zM267 528h157q71 0 110 -36t39 -101t-39 -101t-110 -36h-57v-115h-100v389zM415 337q30 0 44 16t14 38t-14 38.5t-44 16.5h-48v-109h48z" />
    <glyph glyph-name="trademark" unicode="&#x2122;" horiz-adv-x="772" 
d="M145 334v255h-96v78h279v-78h-97v-255h-86zM377 334v333h85l78 -114l78 114h85v-333h-86v206l-77 -111l-77 111v-206h-86z" />
    <glyph glyph-name="degree" unicode="&#xb0;" horiz-adv-x="387" 
d="M110 476.5q-28 28.5 -28 81.5q0 54 28 82.5t81 28.5t81 -28.5t28 -82.5q0 -53 -28 -81.5t-81 -28.5t-81 28.5zM227 518.5q11 12.5 11 40.5t-11 40t-36 12t-36.5 -12t-11.5 -40t11.5 -40.5t36.5 -12.5t36 12.5z" />
    <glyph glyph-name="bar" unicode="|" horiz-adv-x="491" 
d="M185 -99v766h132v-766h-132z" />
    <glyph glyph-name="brokenbar" unicode="&#xa6;" horiz-adv-x="491" 
d="M185 351v316h132v-316h-132zM317 217v-316h-132v316h132z" />
    <glyph glyph-name="dagger" unicode="&#x2020;" horiz-adv-x="474" 
d="M193 93v358h-111v89h111v121h89v-121h112v-89h-112v-358h-89z" />
    <glyph glyph-name="daggerdbl" unicode="&#x2021;" horiz-adv-x="504" 
d="M194 0v125h-126v112h126v158h-126v112h126v126h112v-126h125v-112h-125v-158h125v-112h-125v-125h-112z" />
    <glyph glyph-name="uni2116" unicode="&#x2116;" horiz-adv-x="1132" 
d="M87 0v667h150l237 -399v399h151v-667h-149l-239 398v-398h-150zM735.5 238q-47.5 51 -47.5 146t47.5 146t134.5 51t134.5 -51t47.5 -146t-47.5 -146t-134.5 -51t-134.5 51zM913.5 324.5q14.5 15.5 14.5 59.5t-14.5 59.5t-43.5 15.5q-28 0 -42.5 -16t-14.5 -59t14.5 -59
t42.5 -16q29 0 43.5 15.5zM700 29v115h340v-115h-340z" />
    <glyph glyph-name="asciicircum" unicode="^" horiz-adv-x="591" 
d="M120 468l138 222h72l141 -222h-112l-64 119l-64 -119h-111z" />
    <glyph glyph-name="uni2120" unicode="&#x2120;" horiz-adv-x="735" 
d="M60 363v81q46 -39 103 -39q19 0 32.5 7.5t13.5 20.5q0 11 -12 17t-37 13q-32 9 -52.5 18t-36 30t-15.5 57q0 52 35.5 78t87.5 26q47 0 91 -23v-76q-40 24 -78 24q-20 0 -35 -6.5t-15 -21.5q0 -10 10.5 -15t34.5 -12q32 -8 54 -17.5t38.5 -32.5t16.5 -62
q0 -44 -35.5 -71.5t-85.5 -27.5q-69 0 -115 32zM341 335v333h84l79 -114l78 114h84v-333h-86v206l-76 -111l-77 111v-206h-86z" />
    <glyph glyph-name="uni0308" unicode="&#x308;" 
d="M-389 556v109h150v-109h-150zM-190 556v109h150v-109h-150z" />
    <glyph glyph-name="uni0307" unicode="&#x307;" 
d="M-210 546v109h140v-109h-140z" />
    <glyph glyph-name="gravecomb" unicode="&#x300;" 
d="M-133 546l-123 127h177l42 -127h-96z" />
    <glyph glyph-name="acutecomb" unicode="&#x301;" 
d="M-210 546l42 127h177l-123 -127h-96z" />
    <glyph glyph-name="uni030B" unicode="&#x30b;" 
d="M-371 556l62 117h117l-93 -117h-86zM-220 556l62 117h117l-93 -117h-86z" />
    <glyph glyph-name="uni0302" unicode="&#x302;" 
d="M-370 564l90 122h148l90 -122h-122l-42 54l-42 -54h-122z" />
    <glyph glyph-name="uni030C" unicode="&#x30c;" 
d="M-290 564l-80 122h112l42 -54l42 54h112l-70 -122h-158z" />
    <glyph glyph-name="uni0306" unicode="&#x306;" 
d="M-346 572.5q-35 37.5 -46 103.5h96q7 -22 22 -39t39 -17q43 0 61 56h97q-6 -64 -43.5 -102.5t-114.5 -38.5q-76 0 -111 37.5z" />
    <glyph glyph-name="uni030A" unicode="&#x30a;" 
d="M-299.5 560q-33.5 25 -33.5 71q0 45 34 70.5t93 25.5q60 0 93.5 -25.5t33.5 -70.5q0 -46 -33.5 -71t-93.5 -25t-93.5 25zM-171 606.5q10 6.5 10 24.5q0 17 -10.5 24t-34.5 7t-34.5 -7t-10.5 -24q0 -18 10 -24.5t35 -6.5t35 6.5z" />
    <glyph glyph-name="tildecomb" unicode="&#x303;" 
d="M-454 545q0 40 16 75.5t45.5 56.5t68.5 21q25 0 46 -9.5t47 -27.5q20 -14 35 -21t30 -7q38 0 38 63h81q0 -47 -17.5 -81.5t-46 -52.5t-60.5 -18q-39 0 -63 11t-52 31q-15 12 -24.5 17.5t-21.5 5.5q-23 0 -33 -19.5t-10 -44.5h-79z" />
    <glyph glyph-name="uni0304" unicode="&#x304;" 
d="M-353 542v112h294v-112h-294z" />
    <glyph glyph-name="hookabovecomb" unicode="&#x309;" 
d="M-157 593q15 0 25.5 7t10.5 17q0 23 -40 23q-14 0 -31 -4v65q23 5 70 5q55 0 88 -20t33 -62q0 -31 -16 -49t-43 -18v-23h-97v59z" />
    <glyph glyph-name="uni030F" unicode="&#x30f;" 
d="M-351 546l-123 127h177l42 -127h-96zM-146 546l-123 127h177l42 -127h-96z" />
    <glyph glyph-name="uni0311" unicode="&#x311;" 
d="M-120.5 623.5q37.5 -38.5 43.5 -102.5h-97q-18 56 -61 56q-24 0 -39 -17t-22 -39h-96q11 66 46 103.5t111 37.5q77 0 114.5 -38.5z" />
    <glyph glyph-name="uni031B" unicode="&#x31b;" 
d="M-285 516q74 0 74 39v42h107v-68q0 -56 -46.5 -80.5t-130.5 -27.5z" />
    <glyph glyph-name="dotbelowcmb" unicode="&#x323;" 
d="M-170 -159v109h120v-109h-120z" />
    <glyph glyph-name="uni0324" unicode="&#x324;" 
d="M-389 -150v109h150v-109h-150zM-190 -150v109h150v-109h-150z" />
    <glyph glyph-name="uniF6C3" unicode="&#xf6c3;" 
d="M-219 -119q22 4 30.5 19t7.5 50h135q2 -63 -43.5 -103.5t-129.5 -40.5v75z" />
    <glyph glyph-name="uni0326" unicode="&#x326;" 
d="M-219 -119q22 4 30.5 19t7.5 50h135q2 -63 -43.5 -103.5t-129.5 -40.5v75z" />
    <glyph glyph-name="uni0327" unicode="&#x327;" 
d="M-244 -139l93 134h113l-47 -134h-159z" />
    <glyph glyph-name="uni0328" unicode="&#x328;" 
d="M-292.5 -169.5q-34.5 24.5 -34.5 76.5q0 40 35.5 69t102.5 55l104 -31q-99 -38 -99 -74q0 -21 9 -28.5t26 -7.5q29 0 70 37v-95q-24 -12 -46 -19t-59 -7q-74 0 -108.5 24.5z" />
    <glyph glyph-name="uni032E" unicode="&#x32e;" 
d="M-346 -112.5q-35 37.5 -46 103.5h96q7 -22 22 -39t39 -17q43 0 61 56h97q-6 -64 -43.5 -102.5t-114.5 -38.5q-76 0 -111 37.5z" />
    <glyph glyph-name="uni0331" unicode="&#x331;" 
d="M-353 -155v112h294v-112h-294z" />
    <glyph glyph-name="uni0335" unicode="&#x335;" 
d="M-358 286v108h324v-108h-324z" />
    <glyph glyph-name="uni0326.alt" 
d="M-219 -119q22 4 30.5 19t7.5 50h135q2 -63 -43.5 -103.5t-129.5 -40.5v75z" />
    <glyph glyph-name="uni0308.case" 
d="M-389 556v109h150v-109h-150zM-190 556v109h150v-109h-150z" />
    <glyph glyph-name="uni0307.case" 
d="M-210 546v109h140v-109h-140z" />
    <glyph glyph-name="gravecomb.case" 
d="M-147 546l-103 110h157l42 -110h-96z" />
    <glyph glyph-name="acutecomb.case" 
d="M-218 546l28 112h191l-133 -112h-86z" />
    <glyph glyph-name="uni030B.case" 
d="M-371 556l62 117h117l-93 -117h-86zM-220 556l62 117h117l-93 -117h-86z" />
    <glyph glyph-name="uni0302.case" 
d="M-380 643l90 122h148l90 -122h-122l-42 54l-42 -54h-122z" />
    <glyph glyph-name="uni030C.case" 
d="M-290 564l-80 122h112l42 -54l42 54h112l-70 -122h-158z" />
    <glyph glyph-name="uni0306.case" 
d="M-346 572.5q-35 37.5 -46 103.5h96q7 -22 22 -39t39 -17q43 0 61 56h97q-6 -64 -43.5 -102.5t-114.5 -38.5q-76 0 -111 37.5z" />
    <glyph glyph-name="uni030A.case" 
d="M-301.5 553q-33.5 25 -33.5 71q0 45 34 70.5t93 25.5q60 0 93.5 -25.5t33.5 -70.5q0 -46 -33.5 -71t-93.5 -25t-93.5 25zM-173 599.5q10 6.5 10 24.5q0 17 -10.5 24t-34.5 7t-34.5 -7t-10.5 -24q0 -18 10 -24.5t35 -6.5t35 6.5z" />
    <glyph glyph-name="tildecomb.case" 
d="M-454 548q0 40 16 75.5t45.5 56.5t68.5 21q25 0 46 -9.5t47 -27.5q20 -14 35 -21t30 -7q38 0 38 63h81q0 -47 -17.5 -81.5t-46 -52.5t-60.5 -18q-39 0 -63 11t-52 31q-15 12 -24.5 17.5t-21.5 5.5q-23 0 -33 -19.5t-10 -44.5h-79z" />
    <glyph glyph-name="uni0304.case" 
d="M-353 542v112h294v-112h-294z" />
    <glyph glyph-name="hookabovecomb.case" 
d="M-157 593q15 0 25.5 7t10.5 17q0 23 -40 23q-14 0 -31 -4v65q23 5 70 5q55 0 88 -20t33 -62q0 -31 -16 -49t-43 -18v-23h-97v59z" />
    <glyph glyph-name="uni030F.case" 
d="M-317 546l-103 110h157l42 -110h-96zM-125 547l-103 110h157l42 -110h-96z" />
    <glyph glyph-name="uni0311.case" 
d="M-120.5 643.5q37.5 -38.5 43.5 -102.5h-97q-18 56 -61 56q-24 0 -39 -17t-22 -39h-96q11 66 46 103.5t111 37.5q77 0 114.5 -38.5z" />
    <glyph glyph-name="uni031B.case" 
d="M-285 516q74 0 74 39v42h107v-68q0 -56 -46.5 -80.5t-130.5 -27.5z" />
    <glyph glyph-name="dotbelowcomb.case" 
d="M-170 -159v109h120v-109h-120z" />
    <glyph glyph-name="uni0324.case" 
d="M-389 -150v109h150v-109h-150zM-190 -150v109h150v-109h-150z" />
    <glyph glyph-name="uni0326.case" 
d="M-219 -119q22 4 30.5 19t7.5 50h135q2 -63 -43.5 -103.5t-129.5 -40.5v75z" />
    <glyph glyph-name="uni0327.case" 
d="M-244 -139l93 134h113l-47 -134h-159z" />
    <glyph glyph-name="uni0328.case" 
d="M-292.5 -169.5q-34.5 24.5 -34.5 76.5q0 40 35.5 69t102.5 55l104 -31q-99 -38 -99 -74q0 -21 9 -28.5t26 -7.5q29 0 70 37v-95q-24 -12 -46 -19t-59 -7q-74 0 -108.5 24.5z" />
    <glyph glyph-name="uni032E.case" 
d="M-346 -151.5q-35 37.5 -46 103.5h96q7 -22 22 -39t39 -17q43 0 61 56h97q-6 -64 -43.5 -102.5t-114.5 -38.5q-76 0 -111 37.5z" />
    <glyph glyph-name="uni0331.case" 
d="M-353 -155v112h294v-112h-294z" />
    <glyph glyph-name="uni02C9" unicode="&#x2c9;" horiz-adv-x="394" 
d="M50 689v112h294v-112h-294z" />
    <glyph glyph-name="acute" unicode="&#xb4;" horiz-adv-x="273" 
d="M63 546l42 127h177l-123 -127h-96z" />
    <glyph glyph-name="breve" unicode="&#x2d8;" horiz-adv-x="456" 
d="M110 572.5q-35 37.5 -46 103.5h96q7 -22 22 -39t39 -17q43 0 61 56h97q-6 -64 -43.5 -102.5t-114.5 -38.5q-76 0 -111 37.5z" />
    <glyph glyph-name="caron" unicode="&#x2c7;" horiz-adv-x="427" 
d="M137 564l-80 122h112l42 -54l42 54h112l-70 -122h-158z" />
    <glyph glyph-name="cedilla" unicode="&#xb8;" horiz-adv-x="286" 
d="M42 -139l93 134h113l-47 -134h-159z" />
    <glyph glyph-name="circumflex" unicode="&#x2c6;" horiz-adv-x="427" 
d="M57 564l90 122h148l90 -122h-122l-42 54l-42 -54h-122z" />
    <glyph glyph-name="dieresis" unicode="&#xa8;" horiz-adv-x="449" 
d="M50 556v109h150v-109h-150zM249 556v109h150v-109h-150z" />
    <glyph glyph-name="dotaccent" unicode="&#x2d9;" horiz-adv-x="240" 
d="M50 546v109h140v-109h-140z" />
    <glyph glyph-name="grave" unicode="`" horiz-adv-x="279" 
d="M146 546l-123 127h177l42 -127h-96z" />
    <glyph glyph-name="hungarumlaut" unicode="&#x2dd;" horiz-adv-x="431" 
d="M60 556l62 117h117l-93 -117h-86zM211 556l62 117h117l-93 -117h-86z" />
    <glyph glyph-name="macron" unicode="&#xaf;" horiz-adv-x="394" 
d="M50 542v112h294v-112h-294z" />
    <glyph glyph-name="ogonek" unicode="&#x2db;" horiz-adv-x="368" 
d="M75.5 -169.5q-34.5 24.5 -34.5 76.5q0 40 35.5 69t102.5 55l104 -31q-99 -38 -99 -74q0 -21 9 -28.5t26 -7.5q29 0 70 37v-95q-24 -12 -46 -19t-59 -7q-74 0 -108.5 24.5z" />
    <glyph glyph-name="ring" unicode="&#x2da;" horiz-adv-x="409" 
d="M109.5 560q-33.5 25 -33.5 71q0 45 34 70.5t93 25.5q60 0 93.5 -25.5t33.5 -70.5q0 -46 -33.5 -71t-93.5 -25t-93.5 25zM238 606.5q10 6.5 10 24.5q0 17 -10.5 24t-34.5 7t-34.5 -7t-10.5 -24q0 -18 10 -24.5t35 -6.5t35 6.5z" />
    <glyph glyph-name="tilde" unicode="&#x2dc;" horiz-adv-x="517" 
d="M63 525q0 40 16 75.5t45.5 56.5t68.5 21q25 0 46 -9.5t47 -27.5q20 -14 35 -21t30 -7q38 0 38 63h81q0 -47 -17.5 -81.5t-46 -52.5t-60.5 -18q-39 0 -63 11t-52 31q-15 12 -24.5 17.5t-21.5 5.5q-23 0 -33 -19.5t-10 -44.5h-79z" />
    <glyph glyph-name="uni03060301" 
d="M-342 572.5q-35 37.5 -46 103.5h96q7 -22 22 -39t39 -17q43 0 61 56h97q-6 -64 -43.5 -102.5t-114.5 -38.5q-76 0 -111 37.5zM-279 710l28 112h191l-133 -112h-86z" />
    <glyph glyph-name="uni03060300" 
d="M-319 572.5q-35 37.5 -46 103.5h96q7 -22 22 -39t39 -17q43 0 61 56h97q-6 -64 -43.5 -102.5t-114.5 -38.5q-76 0 -111 37.5zM-253 697l-123 127h177l42 -127h-96z" />
    <glyph glyph-name="uni03060309" 
d="M-346 572.5q-35 37.5 -46 103.5h96q7 -22 22 -39t39 -17q43 0 61 56h97q-6 -64 -43.5 -102.5t-114.5 -38.5q-76 0 -111 37.5zM-271 757q15 0 25.5 7t10.5 17q0 23 -40 23q-14 0 -31 -4v65q23 5 70 5q55 0 88 -20t33 -62q0 -31 -16 -49t-43 -18v-23h-97v59z" />
    </font>
</defs>
</svg>
