<?xml version="1.0" standalone="no"?>
<!DOCTYPE svg PUBLIC "-//W3C//DTD SVG 1.1//EN" "http://www.w3.org/Graphics/SVG/1.1/DTD/svg11.dtd" >
<svg>
<metadata>
Created by FontForge 20090622 at Wed Apr  5 10:33:37 2017
 By deploy user
Copyright 2011 The Maven Pro Project Authors (http://www.vissol.co.uk/mavenpro/), with Reserved Font Name "Maven Pro".
</metadata>
<defs>
<font id="MavenPro-Bold" horiz-adv-x="0" >
  <font-face 
    font-family="Maven Pro"
    font-weight="700"
    font-stretch="normal"
    units-per-em="1000"
    panose-1="0 0 8 0 0 0 0 0 0 0"
    ascent="800"
    descent="-200"
    x-height="506"
    cap-height="667"
    bbox="-599 -223 1289 1055"
    underline-thickness="50"
    underline-position="-50"
    unicode-range="U+000D-U+FB02"
  />
<missing-glyph horiz-adv-x="500" 
 />
    <glyph glyph-name="fi" unicode="fi" horiz-adv-x="674" 
d="M104 392h-74v114h75v12q1 114 52.5 158.5t140.5 44.5q16 0 35 -3t31 -7v-131q-11 11 -22 16.5t-28 5.5q-28 0 -44 -15t-16 -51v-30h110v-114h-111v-392h-149v392zM454 575v115h154v-115h-154zM457 0v499h149l1 -499h-150z" />
    <glyph glyph-name="fl" unicode="fl" horiz-adv-x="668" 
d="M104 392h-74v114h75v12q1 114 52.5 158.5t140.5 44.5q16 0 35 -3t31 -7v-131q-11 11 -22 16.5t-28 5.5q-28 0 -44 -15t-16 -51v-30h110v-114h-111v-392h-149v392zM602 0h-148v697h148v-697z" />
    <glyph glyph-name=".notdef" horiz-adv-x="500" 
 />
    <glyph glyph-name="NULL" 
 />
    <glyph glyph-name="NULL" 
 />
    <glyph glyph-name="nonmarkingreturn" unicode="&#xd;" horiz-adv-x="276" 
 />
    <glyph glyph-name="space" unicode=" " horiz-adv-x="276" 
 />
    <glyph glyph-name="A" unicode="A" horiz-adv-x="691" 
d="M512 0l-49 144h-249l-48 -144h-153l252 667h177l236 -667h-166zM254 263h169l-85 252z" />
    <glyph glyph-name="Aacute" unicode="&#xc1;" horiz-adv-x="691" 
d="M512 0l-49 144h-249l-48 -144h-153l252 667h177l236 -667h-166zM254 263h169l-85 252zM307 719l36 113h156l-118 -113h-74z" />
    <glyph glyph-name="Abreve" unicode="&#x102;" horiz-adv-x="691" 
d="M512 0l-49 144h-249l-48 -144h-153l252 667h177l236 -667h-166zM254 263h169l-85 252zM195 834h83q8 -24 25 -41t43 -17q46 0 67 58h84q-7 -61 -44.5 -97t-106.5 -36q-127 0 -151 133z" />
    <glyph glyph-name="uni1EAE" unicode="&#x1eae;" horiz-adv-x="691" 
d="M512 0l-49 144h-249l-48 -144h-153l252 667h177l236 -667h-166zM254 263h169l-85 252zM195 839h83q8 -24 25 -41t43 -17q46 0 67 58h84q-7 -61 -44.5 -97t-106.5 -36q-127 0 -151 133zM303 866l36 113h156l-118 -113h-74z" />
    <glyph glyph-name="uni1EB6" unicode="&#x1eb6;" horiz-adv-x="691" 
d="M512 0l-49 144h-249l-48 -144h-153l252 667h177l236 -667h-166zM254 263h169l-85 252zM292 -150v100h108v-100h-108zM195 834h83q8 -24 25 -41t43 -17q46 0 67 58h84q-7 -61 -44.5 -97t-106.5 -36q-127 0 -151 133z" />
    <glyph glyph-name="uni1EB0" unicode="&#x1eb0;" horiz-adv-x="691" 
d="M512 0l-49 144h-249l-48 -144h-153l252 667h177l236 -667h-166zM254 263h169l-85 252zM195 839h83q8 -24 25 -41t43 -17q46 0 67 58h84q-7 -61 -44.5 -97t-106.5 -36q-127 0 -151 133zM307 855l-111 124h146l46 -124h-81z" />
    <glyph glyph-name="uni1EB2" unicode="&#x1eb2;" horiz-adv-x="691" 
d="M512 0l-49 144h-249l-48 -144h-153l252 667h177l236 -667h-166zM254 263h169l-85 252zM191 839h83q8 -24 25 -41t43 -17q46 0 67 58h84q-7 -61 -44.5 -97t-106.5 -36q-127 0 -151 133zM308 912q17 1 27 8t10 16q0 24 -42 24q-13 0 -30 -3v58q22 5 58 5q50 0 81 -19
t31 -59q0 -28 -15 -45t-42 -18v-24h-78v57z" />
    <glyph glyph-name="uni1EB4" unicode="&#x1eb4;" horiz-adv-x="691" 
d="M512 0l-49 144h-249l-48 -144h-153l252 667h177l236 -667h-166zM254 263h169l-85 252zM195 839h83q8 -24 25 -41t43 -17q46 0 67 58h84q-7 -61 -44.5 -97t-106.5 -36q-127 0 -151 133zM168 873q-2 38 12 70t40.5 51t60.5 19q25 0 45.5 -9.5t46.5 -27.5q19 -14 32.5 -20.5
t27.5 -6.5q37 0 33 59h73q2 -63 -30.5 -100.5t-81.5 -37.5q-34 0 -56.5 11t-48.5 30q-18 13 -27 18t-20 5q-20 0 -30 -18t-8 -43h-69z" />
    <glyph glyph-name="uni01CD" unicode="&#x1cd;" horiz-adv-x="691" 
d="M512 0l-49 144h-249l-48 -144h-153l252 667h177l236 -667h-166zM254 263h169l-85 252zM285 700l-81 121h95l43 -58l43 58h95l-73 -121h-122z" />
    <glyph glyph-name="Acircumflex" unicode="&#xc2;" horiz-adv-x="691" 
d="M512 0l-49 144h-249l-48 -144h-153l252 667h177l236 -667h-166zM254 263h169l-85 252zM198 709l88 121h121l87 -121h-99l-49 59l-49 -59h-99z" />
    <glyph glyph-name="uni1EA4" unicode="&#x1ea4;" horiz-adv-x="691" 
d="M512 0l-49 144h-249l-48 -144h-153l252 667h177l236 -667h-166zM254 263h169l-85 252zM199 711l88 121h121l87 -121h-99l-49 59l-49 -59h-99zM466 784l36 113h156l-118 -113h-74z" />
    <glyph glyph-name="uni1EAC" unicode="&#x1eac;" horiz-adv-x="691" 
d="M512 0l-49 144h-249l-48 -144h-153l252 667h177l236 -667h-166zM254 263h169l-85 252zM292 -150v100h108v-100h-108zM198 709l88 121h121l87 -121h-99l-49 59l-49 -59h-99z" />
    <glyph glyph-name="uni1EA6" unicode="&#x1ea6;" horiz-adv-x="691" 
d="M512 0l-49 144h-249l-48 -144h-153l252 667h177l236 -667h-166zM254 263h169l-85 252zM205 711l88 121h121l87 -121h-99l-49 59l-49 -59h-99zM137 783l-97 111h132l47 -111h-82z" />
    <glyph glyph-name="uni1EA8" unicode="&#x1ea8;" horiz-adv-x="691" 
d="M512 0l-49 144h-249l-48 -144h-153l252 667h177l236 -667h-166zM254 263h169l-85 252zM189 715l88 121h121l87 -121h-99l-49 59l-49 -59h-99zM465 834q17 1 27 8t10 16q0 24 -42 24q-13 0 -30 -3v58q22 5 58 5q50 0 81 -19t31 -59q0 -28 -15 -45t-42 -18v-24h-78v57z" />
    <glyph glyph-name="uni1EAA" unicode="&#x1eaa;" horiz-adv-x="691" 
d="M512 0l-49 144h-249l-48 -144h-153l252 667h177l236 -667h-166zM254 263h169l-85 252zM204 699l88 121h121l87 -121h-99l-49 59l-49 -59h-99zM167 863q-2 38 12 70t40.5 51t60.5 19q25 0 45.5 -9.5t46.5 -27.5q19 -14 32.5 -20.5t27.5 -6.5q37 0 33 59h73
q2 -63 -30.5 -100.5t-81.5 -37.5q-34 0 -56.5 11t-48.5 30q-18 13 -27 18t-20 5q-20 0 -30 -18t-8 -43h-69z" />
    <glyph glyph-name="uni0200" unicode="&#x200;" horiz-adv-x="691" 
d="M512 0l-49 144h-249l-48 -144h-153l252 667h177l236 -667h-166zM254 263h169l-85 252zM231 720l-97 111h132l47 -111h-82zM402 720l-97 111h132l47 -111h-82z" />
    <glyph glyph-name="Adieresis" unicode="&#xc4;" horiz-adv-x="691" 
d="M512 0l-49 144h-249l-48 -144h-153l252 667h177l236 -667h-166zM254 263h169l-85 252zM187 703v100h128v-100h-128zM370 703v100h129v-100h-129z" />
    <glyph glyph-name="uni0226" unicode="&#x226;" horiz-adv-x="691" 
d="M512 0l-49 144h-249l-48 -144h-153l252 667h177l236 -667h-166zM254 263h169l-85 252zM276 697v100h121v-100h-121z" />
    <glyph glyph-name="uni1EA0" unicode="&#x1ea0;" horiz-adv-x="691" 
d="M512 0l-49 144h-249l-48 -144h-153l252 667h177l236 -667h-166zM254 263h169l-85 252zM292 -150v100h108v-100h-108z" />
    <glyph glyph-name="Agrave" unicode="&#xc0;" horiz-adv-x="691" 
d="M512 0l-49 144h-249l-48 -144h-153l252 667h177l236 -667h-166zM254 263h169l-85 252zM310 716l-97 111h132l47 -111h-82z" />
    <glyph glyph-name="uni1EA2" unicode="&#x1ea2;" horiz-adv-x="691" 
d="M512 0l-49 144h-249l-48 -144h-153l252 667h177l236 -667h-166zM254 263h169l-85 252zM297 761q17 1 27 8t10 16q0 24 -42 24q-13 0 -30 -3v58q22 5 58 5q50 0 81 -19t31 -59q0 -28 -15 -45t-42 -18v-24h-78v57z" />
    <glyph glyph-name="uni0202" unicode="&#x202;" horiz-adv-x="691" 
d="M512 0l-49 144h-249l-48 -144h-153l252 667h177l236 -667h-166zM254 263h169l-85 252zM452.5 796q37.5 -36 44.5 -97h-84q-21 58 -67 58q-26 0 -43 -17t-25 -41h-83q24 133 151 133q69 0 106.5 -36z" />
    <glyph glyph-name="Amacron" unicode="&#x100;" horiz-adv-x="691" 
d="M512 0l-49 144h-249l-48 -144h-153l252 667h177l236 -667h-166zM254 263h169l-85 252zM204 712v95h276v-95h-276z" />
    <glyph glyph-name="Aogonek" unicode="&#x104;" horiz-adv-x="691" 
d="M679 -79v-85q-19 -11 -39.5 -17.5t-51.5 -6.5q-65 0 -96 24t-31 72q0 51 70 92h-19l-49 144h-249l-48 -144h-153l252 667h177l236 -667h-2q-44 -18 -70.5 -38t-26.5 -39q0 -20 9 -28t26 -8q29 0 65 34zM254 263h169l-85 252z" />
    <glyph glyph-name="Aring" unicode="&#xc5;" horiz-adv-x="691" 
d="M463 144h-249l-48 -144h-153l252 667h49q-43 6 -65.5 29.5t-22.5 63.5q0 46 30.5 70.5t88.5 24.5t88.5 -24.5t30.5 -70.5q0 -40 -22.5 -63.5t-65.5 -29.5h66l236 -667h-166zM308 731.5q11 -8.5 37 -8.5t37 8.5t11 28.5t-11 28t-37 8t-37 -8t-11 -28t11 -28.5zM254 263
h169l-85 252z" />
    <glyph glyph-name="Aringacute" unicode="&#x1fa;" horiz-adv-x="691" 
d="M499 1005l-118 -113h-74l36 113h156zM463 144h-249l-48 -144h-153l252 667h49q-43 6 -65.5 29.5t-22.5 63.5q0 46 30.5 70.5t88.5 24.5t88.5 -24.5t30.5 -70.5q0 -40 -22.5 -63.5t-65.5 -29.5h66l236 -667h-166zM308 731.5q11 -8.5 37 -8.5t37 8.5t11 28.5t-11 28t-37 8
t-37 -8t-11 -28t11 -28.5zM254 263h169l-85 252z" />
    <glyph glyph-name="Atilde" unicode="&#xc3;" horiz-adv-x="691" 
d="M512 0l-49 144h-249l-48 -144h-153l252 667h177l236 -667h-166zM254 263h169l-85 252zM169 720q-2 38 12 70t40.5 51t60.5 19q25 0 45.5 -9.5t46.5 -27.5q19 -14 32.5 -20.5t27.5 -6.5q37 0 33 59h73q2 -63 -30.5 -100.5t-81.5 -37.5q-34 0 -56.5 11t-48.5 30
q-18 13 -27 18t-20 5q-20 0 -30 -18t-8 -43h-69z" />
    <glyph glyph-name="AE" unicode="&#xc6;" horiz-adv-x="1028" 
d="M964 541h-287v-141h247v-126h-247v-148h287v-126h-448v147h-227l-95 -147h-181l465 667h486v-126zM365 264h151v233z" />
    <glyph glyph-name="AEacute" unicode="&#x1fc;" horiz-adv-x="1028" 
d="M964 541h-287v-141h247v-126h-247v-148h287v-126h-448v147h-227l-95 -147h-181l465 667h486v-126zM365 264h151v233zM684 719l36 113h156l-118 -113h-74z" />
    <glyph glyph-name="B" unicode="B" horiz-adv-x="671" 
d="M597.5 299.5q30.5 -39.5 30.5 -97.5q0 -100 -69 -151t-178 -51h-310v667h283q114 0 177 -44.5t63 -140.5q0 -78 -82 -125q55 -18 85.5 -57.5zM233 405h130q27 0 46.5 16t19.5 48q0 72 -76 72h-120v-136zM435.5 144q26.5 20 26.5 64q0 42 -27 60t-69 18h-133v-161h136
q40 -1 66.5 19z" />
    <glyph glyph-name="C" unicode="C" horiz-adv-x="630" 
d="M38 333q0 349 328 349q101 0 212 -49v-141q-96 64 -190 64q-92 0 -137.5 -51.5t-45.5 -171.5t46.5 -170t143.5 -50q40 0 87 15t96 47v-141q-41 -21 -100 -34t-112 -13q-328 0 -328 346z" />
    <glyph glyph-name="Cacute" unicode="&#x106;" horiz-adv-x="630" 
d="M38 333q0 349 328 349q101 0 212 -49v-141q-96 64 -190 64q-92 0 -137.5 -51.5t-45.5 -171.5t46.5 -170t143.5 -50q40 0 87 15t96 47v-141q-41 -21 -100 -34t-112 -13q-328 0 -328 346zM313 740l36 113h156l-118 -113h-74z" />
    <glyph glyph-name="Ccaron" unicode="&#x10c;" horiz-adv-x="630" 
d="M38 333q0 349 328 349q101 0 212 -49v-141q-96 64 -190 64q-92 0 -137.5 -51.5t-45.5 -171.5t46.5 -170t143.5 -50q40 0 87 15t96 47v-141q-41 -21 -100 -34t-112 -13q-328 0 -328 346zM291 721l-81 121h95l43 -58l43 58h95l-73 -121h-122z" />
    <glyph glyph-name="Ccedilla" unicode="&#xc7;" horiz-adv-x="630" 
d="M250.5 504.5q-45.5 -51.5 -45.5 -171.5t46.5 -170t143.5 -50q40 0 87 15t96 47v-141q-40 -21 -98.5 -34t-111.5 -13l-44 -109h-134l82 117q-234 46 -234 338q0 349 328 349q101 0 212 -49v-141q-96 64 -190 64q-92 0 -137.5 -51.5z" />
    <glyph glyph-name="Ccircumflex" unicode="&#x108;" horiz-adv-x="630" 
d="M38 333q0 349 328 349q101 0 212 -49v-141q-96 64 -190 64q-92 0 -137.5 -51.5t-45.5 -171.5t46.5 -170t143.5 -50q40 0 87 15t96 47v-141q-41 -21 -100 -34t-112 -13q-328 0 -328 346zM204 730l88 121h121l87 -121h-99l-49 59l-49 -59h-99z" />
    <glyph glyph-name="Cdotaccent" unicode="&#x10a;" horiz-adv-x="630" 
d="M38 333q0 349 328 349q101 0 212 -49v-141q-96 64 -190 64q-92 0 -137.5 -51.5t-45.5 -171.5t46.5 -170t143.5 -50q40 0 87 15t96 47v-141q-41 -21 -100 -34t-112 -13q-328 0 -328 346zM282 718v100h121v-100h-121z" />
    <glyph glyph-name="D" unicode="D" horiz-adv-x="711" 
d="M71 667h268q168 0 249 -83.5t81 -250.5q0 -166 -81 -249.5t-249 -83.5h-268v667zM320 125q91 0 137 51t46 157q0 108 -46 158.5t-137 50.5h-87v-417h87z" />
    <glyph glyph-name="uni01C4" unicode="&#x1c4;" horiz-adv-x="1345" 
d="M71 667h268q168 0 249 -83.5t81 -250.5q0 -166 -81 -249.5t-249 -83.5h-268v667zM320 125q91 0 137 51t46 157q0 108 -46 158.5t-137 50.5h-87v-417h87zM1289 667v-116l-320 -425h320v-126h-524v118l328 422h-323v127h519zM974 701l-81 121h95l43 -58l43 58h95l-73 -121
h-122z" />
    <glyph glyph-name="Eth" unicode="&#xd0;" horiz-adv-x="711" 
d="M588 583.5q81 -83.5 81 -250.5q0 -166 -81 -249.5t-249 -83.5h-268v288h-65v91h65v288h268q168 0 249 -83.5zM457 176q46 51 46 157q0 108 -46 158.5t-137 50.5h-87v-163h73v-91h-73v-163h87q91 0 137 51z" />
    <glyph glyph-name="Dcaron" unicode="&#x10e;" horiz-adv-x="711" 
d="M71 667h268q168 0 249 -83.5t81 -250.5q0 -166 -81 -249.5t-249 -83.5h-268v667zM320 125q91 0 137 51t46 157q0 108 -46 158.5t-137 50.5h-87v-417h87zM252 700l-81 121h95l43 -58l43 58h95l-73 -121h-122z" />
    <glyph glyph-name="Dcroat" unicode="&#x110;" horiz-adv-x="711" 
d="M588 583.5q81 -83.5 81 -250.5q0 -166 -81 -249.5t-249 -83.5h-268v288h-65v91h65v288h268q168 0 249 -83.5zM457 176q46 51 46 157q0 108 -46 158.5t-137 50.5h-87v-163h73v-91h-73v-163h87q91 0 137 51z" />
    <glyph glyph-name="uni01F2" unicode="&#x1f2;" horiz-adv-x="1203" 
d="M71 667h268q168 0 249 -83.5t81 -250.5q0 -166 -81 -249.5t-249 -83.5h-268v667zM320 125q91 0 137 51t46 157q0 108 -46 158.5t-137 50.5h-87v-417h87zM1158 506v-116l-221 -271h221v-119h-402v118l245 276h-239v112h396z" />
    <glyph glyph-name="uni01C5" unicode="&#x1c5;" horiz-adv-x="1203" 
d="M71 667h268q168 0 249 -83.5t81 -250.5q0 -166 -81 -249.5t-249 -83.5h-268v667zM320 125q91 0 137 51t46 157q0 108 -46 158.5t-137 50.5h-87v-417h87zM1158 506v-116l-221 -271h221v-119h-402v118l245 276h-239v112h396zM903 564l-81 121h95l43 -58l43 58h95l-73 -121
h-122z" />
    <glyph glyph-name="E" unicode="E" horiz-adv-x="593" 
d="M71 0v667h457v-125h-295v-145h256v-126h-256v-146h295v-125h-457z" />
    <glyph glyph-name="Eacute" unicode="&#xc9;" horiz-adv-x="593" 
d="M71 0v667h457v-125h-295v-145h256v-126h-256v-146h295v-125h-457zM265 719l36 113h156l-118 -113h-74z" />
    <glyph glyph-name="Ebreve" unicode="&#x114;" horiz-adv-x="593" 
d="M71 0v667h457v-125h-295v-145h256v-126h-256v-146h295v-125h-457zM153 834h83q8 -24 25 -41t43 -17q46 0 67 58h84q-7 -61 -44.5 -97t-106.5 -36q-127 0 -151 133z" />
    <glyph glyph-name="Ecaron" unicode="&#x11a;" horiz-adv-x="593" 
d="M71 0v667h457v-125h-295v-145h256v-126h-256v-146h295v-125h-457zM243 700l-81 121h95l43 -58l43 58h95l-73 -121h-122z" />
    <glyph glyph-name="uni1E1C" unicode="&#x1e1c;" horiz-adv-x="593" 
d="M153 834h83q8 -24 25 -41t43 -17q46 0 67 58h84q-7 -61 -44.5 -97t-106.5 -36q-127 0 -151 133zM528 542h-295v-145h256v-126h-256v-146h295v-125h-174l-50 -122h-134l86 122h-185v667h457v-125z" />
    <glyph glyph-name="Ecircumflex" unicode="&#xca;" horiz-adv-x="593" 
d="M71 0v667h457v-125h-295v-145h256v-126h-256v-146h295v-125h-457zM156 709l88 121h121l87 -121h-99l-49 59l-49 -59h-99z" />
    <glyph glyph-name="uni1EBE" unicode="&#x1ebe;" horiz-adv-x="593" 
d="M71 0v667h457v-125h-295v-145h256v-126h-256v-146h295v-125h-457zM157 711l88 121h121l87 -121h-99l-49 59l-49 -59h-99zM424 784l36 113h156l-118 -113h-74z" />
    <glyph glyph-name="uni1EC6" unicode="&#x1ec6;" horiz-adv-x="593" 
d="M71 0v667h457v-125h-295v-145h256v-126h-256v-146h295v-125h-457zM242 -150v100h108v-100h-108zM156 709l88 121h121l87 -121h-99l-49 59l-49 -59h-99z" />
    <glyph glyph-name="uni1EC0" unicode="&#x1ec0;" horiz-adv-x="593" 
d="M71 0v667h457v-125h-295v-145h256v-126h-256v-146h295v-125h-457zM163 711l88 121h121l87 -121h-99l-49 59l-49 -59h-99zM95 783l-97 111h132l47 -111h-82z" />
    <glyph glyph-name="uni1EC2" unicode="&#x1ec2;" horiz-adv-x="593" 
d="M71 0v667h457v-125h-295v-145h256v-126h-256v-146h295v-125h-457zM147 715l88 121h121l87 -121h-99l-49 59l-49 -59h-99zM423 834q17 1 27 8t10 16q0 24 -42 24q-13 0 -30 -3v58q22 5 58 5q50 0 81 -19t31 -59q0 -28 -15 -45t-42 -18v-24h-78v57z" />
    <glyph glyph-name="uni1EC4" unicode="&#x1ec4;" horiz-adv-x="593" 
d="M71 0v667h457v-125h-295v-145h256v-126h-256v-146h295v-125h-457zM162 699l88 121h121l87 -121h-99l-49 59l-49 -59h-99zM125 863q-2 38 12 70t40.5 51t60.5 19q25 0 45.5 -9.5t46.5 -27.5q19 -14 32.5 -20.5t27.5 -6.5q37 0 33 59h73q2 -63 -30.5 -100.5t-81.5 -37.5
q-34 0 -56.5 11t-48.5 30q-18 13 -27 18t-20 5q-20 0 -30 -18t-8 -43h-69z" />
    <glyph glyph-name="uni0204" unicode="&#x204;" horiz-adv-x="593" 
d="M71 0v667h457v-125h-295v-145h256v-126h-256v-146h295v-125h-457zM189 720l-97 111h132l47 -111h-82zM360 720l-97 111h132l47 -111h-82z" />
    <glyph glyph-name="Edieresis" unicode="&#xcb;" horiz-adv-x="593" 
d="M71 0v667h457v-125h-295v-145h256v-126h-256v-146h295v-125h-457zM145 703v100h128v-100h-128zM328 703v100h129v-100h-129z" />
    <glyph glyph-name="Edotaccent" unicode="&#x116;" horiz-adv-x="593" 
d="M71 0v667h457v-125h-295v-145h256v-126h-256v-146h295v-125h-457zM234 697v100h121v-100h-121z" />
    <glyph glyph-name="uni1EB8" unicode="&#x1eb8;" horiz-adv-x="593" 
d="M71 0v667h457v-125h-295v-145h256v-126h-256v-146h295v-125h-457zM242 -150v100h108v-100h-108z" />
    <glyph glyph-name="Egrave" unicode="&#xc8;" horiz-adv-x="593" 
d="M71 0v667h457v-125h-295v-145h256v-126h-256v-146h295v-125h-457zM268 716l-97 111h132l47 -111h-82z" />
    <glyph glyph-name="uni1EBA" unicode="&#x1eba;" horiz-adv-x="593" 
d="M71 0v667h457v-125h-295v-145h256v-126h-256v-146h295v-125h-457zM255 761q17 1 27 8t10 16q0 24 -42 24q-13 0 -30 -3v58q22 5 58 5q50 0 81 -19t31 -59q0 -28 -15 -45t-42 -18v-24h-78v57z" />
    <glyph glyph-name="uni0206" unicode="&#x206;" horiz-adv-x="593" 
d="M71 0v667h457v-125h-295v-145h256v-126h-256v-146h295v-125h-457zM410.5 796q37.5 -36 44.5 -97h-84q-21 58 -67 58q-26 0 -43 -17t-25 -41h-83q24 133 151 133q69 0 106.5 -36z" />
    <glyph glyph-name="Emacron" unicode="&#x112;" horiz-adv-x="593" 
d="M71 0v667h457v-125h-295v-145h256v-126h-256v-146h295v-125h-457zM162 712v95h276v-95h-276z" />
    <glyph glyph-name="uni1E16" unicode="&#x1e16;" horiz-adv-x="593" 
d="M71 0v667h457v-125h-295v-145h256v-126h-256v-146h295v-125h-457zM162 712v95h276v-95h-276zM265 852l36 113h156l-118 -113h-74z" />
    <glyph glyph-name="uni1E14" unicode="&#x1e14;" horiz-adv-x="593" 
d="M71 0v667h457v-125h-295v-145h256v-126h-256v-146h295v-125h-457zM162 712v95h276v-95h-276zM268 849l-97 111h132l47 -111h-82z" />
    <glyph glyph-name="Eogonek" unicode="&#x118;" horiz-adv-x="593" 
d="M233 542v-145h256v-126h-256v-146h295v-125h-11q-44 -18 -70.5 -38t-26.5 -39q0 -20 9 -28t26 -8q29 0 65 34v-85q-19 -11 -39.5 -17.5t-51.5 -6.5q-65 0 -96 24t-31 72q0 51 70 92h-301v667h457v-125h-295z" />
    <glyph glyph-name="uni1EBC" unicode="&#x1ebc;" horiz-adv-x="593" 
d="M71 0v667h457v-125h-295v-145h256v-126h-256v-146h295v-125h-457zM127 720q-2 38 12 70t40.5 51t60.5 19q25 0 45.5 -9.5t46.5 -27.5q19 -14 32.5 -20.5t27.5 -6.5q37 0 33 59h73q2 -63 -30.5 -100.5t-81.5 -37.5q-34 0 -56.5 11t-48.5 30q-18 13 -27 18t-20 5
q-20 0 -30 -18t-8 -43h-69z" />
    <glyph glyph-name="F" unicode="F" horiz-adv-x="570" 
d="M71 0v667h454v-125h-292v-159h252v-127h-252v-256h-162z" />
    <glyph glyph-name="uni1E1E" unicode="&#x1e1e;" horiz-adv-x="567" 
d="M71 0v667h454v-125h-292v-159h252v-127h-252v-256h-162zM194 693v100h121v-100h-121z" />
    <glyph glyph-name="G" unicode="G" horiz-adv-x="706" 
d="M128 70q-85 84 -85 263q0 177 86 263t239 86q121 0 238 -49v-147q-68 36 -117.5 53t-100.5 17q-91 0 -135.5 -50.5t-44.5 -171.5q0 -119 45 -170.5t128 -51.5q59 0 92 16v118h-110v126h272v-314q-130 -72 -267 -72q-155 0 -240 84z" />
    <glyph glyph-name="uni01F4" unicode="&#x1f4;" horiz-adv-x="706" 
d="M128 70q-85 84 -85 263q0 177 86 263t239 86q121 0 238 -49v-147q-68 36 -117.5 53t-100.5 17q-91 0 -135.5 -50.5t-44.5 -171.5q0 -119 45 -170.5t128 -51.5q59 0 92 16v118h-110v126h272v-314q-130 -72 -267 -72q-155 0 -240 84zM332 733l36 113h156l-118 -113h-74z
" />
    <glyph glyph-name="Gbreve" unicode="&#x11e;" horiz-adv-x="706" 
d="M128 70q-85 84 -85 263q0 177 86 263t239 86q121 0 238 -49v-147q-68 36 -117.5 53t-100.5 17q-91 0 -135.5 -50.5t-44.5 -171.5q0 -119 45 -170.5t128 -51.5q59 0 92 16v118h-110v126h272v-314q-130 -72 -267 -72q-155 0 -240 84zM220 848h83q8 -24 25 -41t43 -17
q46 0 67 58h84q-7 -61 -44.5 -97t-106.5 -36q-127 0 -151 133z" />
    <glyph glyph-name="Gcaron" unicode="&#x1e6;" horiz-adv-x="706" 
d="M128 70q-85 84 -85 263q0 177 86 263t239 86q121 0 238 -49v-147q-68 36 -117.5 53t-100.5 17q-91 0 -135.5 -50.5t-44.5 -171.5q0 -119 45 -170.5t128 -51.5q59 0 92 16v118h-110v126h272v-314q-130 -72 -267 -72q-155 0 -240 84zM310 714l-81 121h95l43 -58l43 58h95
l-73 -121h-122z" />
    <glyph glyph-name="Gcircumflex" unicode="&#x11c;" horiz-adv-x="706" 
d="M128 70q-85 84 -85 263q0 177 86 263t239 86q121 0 238 -49v-147q-68 36 -117.5 53t-100.5 17q-91 0 -135.5 -50.5t-44.5 -171.5q0 -119 45 -170.5t128 -51.5q59 0 92 16v118h-110v126h272v-314q-130 -72 -267 -72q-155 0 -240 84zM223 723l88 121h121l87 -121h-99
l-49 59l-49 -59h-99z" />
    <glyph glyph-name="Gcommaaccent" unicode="&#x122;" horiz-adv-x="706" 
d="M128 70q-85 84 -85 263q0 177 86 263t239 86q121 0 238 -49v-147q-68 36 -117.5 53t-100.5 17q-91 0 -135.5 -50.5t-44.5 -171.5q0 -119 45 -170.5t128 -51.5q59 0 92 16v118h-110v126h272v-314q-130 -72 -267 -72q-155 0 -240 84zM242 -125q23 6 31 24t8 51h112
q2 -64 -39 -103t-112 -41v69z" />
    <glyph glyph-name="Gdotaccent" unicode="&#x120;" horiz-adv-x="706" 
d="M128 70q-85 84 -85 263q0 177 86 263t239 86q121 0 238 -49v-147q-68 36 -117.5 53t-100.5 17q-91 0 -135.5 -50.5t-44.5 -171.5q0 -119 45 -170.5t128 -51.5q59 0 92 16v118h-110v126h272v-314q-130 -72 -267 -72q-155 0 -240 84zM301 711v100h121v-100h-121z" />
    <glyph glyph-name="uni1E20" unicode="&#x1e20;" horiz-adv-x="706" 
d="M128 70q-85 84 -85 263q0 177 86 263t239 86q121 0 238 -49v-147q-68 36 -117.5 53t-100.5 17q-91 0 -135.5 -50.5t-44.5 -171.5q0 -119 45 -170.5t128 -51.5q59 0 92 16v118h-110v126h272v-314q-130 -72 -267 -72q-155 0 -240 84zM229 726v95h276v-95h-276z" />
    <glyph glyph-name="H" unicode="H" horiz-adv-x="710" 
d="M71 0v667h162v-270h245v270h161v-667h-161v265h-245v-265h-162z" />
    <glyph glyph-name="Hbar" unicode="&#x126;" horiz-adv-x="710" 
d="M682 565v-78h-43v-487h-161v265h-245v-265h-162v487h-43v78h43v102h162v-102h245v102h161v-102h43zM478 397v90h-245v-90h245z" />
    <glyph glyph-name="uni1E2A" unicode="&#x1e2a;" horiz-adv-x="710" 
d="M71 0v667h162v-270h245v270h161v-667h-161v265h-245v-265h-162zM204 -42h83q8 -24 25 -41t43 -17q46 0 67 58h84q-7 -61 -44.5 -97t-106.5 -36q-127 0 -151 133z" />
    <glyph glyph-name="Hcircumflex" unicode="&#x124;" horiz-adv-x="710" 
d="M71 0v667h162v-270h245v270h161v-667h-161v265h-245v-265h-162zM207 709l88 121h121l87 -121h-99l-49 59l-49 -59h-99z" />
    <glyph glyph-name="I" unicode="I" horiz-adv-x="304" 
d="M71 0v667h162v-667h-162z" />
    <glyph glyph-name="IJ" unicode="&#x132;" horiz-adv-x="782" 
d="M71 0v667h162v-667h-162zM339 24v148q40 -28 66 -41.5t52 -13.5q92 0 92 93v457h162v-464q0 -115 -62 -165.5t-153 -50.5q-78 0 -157 37z" />
    <glyph glyph-name="Iacute" unicode="&#xcd;" horiz-adv-x="304" 
d="M71 0v667h162v-667h-162zM118 719l36 113h156l-118 -113h-74z" />
    <glyph glyph-name="Ibreve" unicode="&#x12c;" horiz-adv-x="304" 
d="M71 0v667h162v-667h-162zM6 834h83q8 -24 25 -41t43 -17q46 0 67 58h84q-7 -61 -44.5 -97t-106.5 -36q-127 0 -151 133z" />
    <glyph glyph-name="uni01CF" unicode="&#x1cf;" horiz-adv-x="304" 
d="M71 0v667h162v-667h-162zM96 700l-81 121h95l43 -58l43 58h95l-73 -121h-122z" />
    <glyph glyph-name="Icircumflex" unicode="&#xce;" horiz-adv-x="304" 
d="M71 0v667h162v-667h-162zM9 709l88 121h121l87 -121h-99l-49 59l-49 -59h-99z" />
    <glyph glyph-name="uni0208" unicode="&#x208;" horiz-adv-x="304" 
d="M71 0v667h162v-667h-162zM42 720l-97 111h132l47 -111h-82zM213 720l-97 111h132l47 -111h-82z" />
    <glyph glyph-name="Idieresis" unicode="&#xcf;" horiz-adv-x="304" 
d="M71 0v667h162v-667h-162zM-2 703v100h128v-100h-128zM181 703v100h129v-100h-129z" />
    <glyph glyph-name="uni1E2E" unicode="&#x1e2e;" horiz-adv-x="304" 
d="M71 0v667h162v-667h-162zM-2 703v100h128v-100h-128zM181 703v100h129v-100h-129zM118 864l36 113h156l-118 -113h-74z" />
    <glyph glyph-name="Idotaccent" unicode="&#x130;" horiz-adv-x="304" 
d="M71 0v667h162v-667h-162zM87 697v100h121v-100h-121z" />
    <glyph glyph-name="uni1ECA" unicode="&#x1eca;" horiz-adv-x="304" 
d="M71 0v667h162v-667h-162zM92 -150v100h108v-100h-108z" />
    <glyph glyph-name="Igrave" unicode="&#xcc;" horiz-adv-x="304" 
d="M71 0v667h162v-667h-162zM121 716l-97 111h132l47 -111h-82z" />
    <glyph glyph-name="uni1EC8" unicode="&#x1ec8;" horiz-adv-x="304" 
d="M71 0v667h162v-667h-162zM108 761q17 1 27 8t10 16q0 24 -42 24q-13 0 -30 -3v58q22 5 58 5q50 0 81 -19t31 -59q0 -28 -15 -45t-42 -18v-24h-78v57z" />
    <glyph glyph-name="uni020A" unicode="&#x20a;" horiz-adv-x="304" 
d="M71 0v667h162v-667h-162zM263.5 796q37.5 -36 44.5 -97h-84q-21 58 -67 58q-26 0 -43 -17t-25 -41h-83q24 133 151 133q69 0 106.5 -36z" />
    <glyph glyph-name="Imacron" unicode="&#x12a;" horiz-adv-x="304" 
d="M71 0v667h162v-667h-162zM15 712v95h276v-95h-276z" />
    <glyph glyph-name="Iogonek" unicode="&#x12e;" horiz-adv-x="304" 
d="M159.5 -38q-26.5 -20 -26.5 -39q0 -20 9 -28t26 -8q29 0 65 34v-85q-19 -11 -39.5 -17.5t-51.5 -6.5q-65 0 -96 24t-31 72q0 51 70 92h-14v667h162v-667h-3q-44 -18 -70.5 -38z" />
    <glyph glyph-name="Itilde" unicode="&#x128;" horiz-adv-x="304" 
d="M71 0v667h162v-667h-162zM-20 720q-2 38 12 70t40.5 51t60.5 19q25 0 45.5 -9.5t46.5 -27.5q19 -14 32.5 -20.5t27.5 -6.5q37 0 33 59h73q2 -63 -30.5 -100.5t-81.5 -37.5q-34 0 -56.5 11t-48.5 30q-18 13 -27 18t-20 5q-20 0 -30 -18t-8 -43h-69z" />
    <glyph glyph-name="J" unicode="J" horiz-adv-x="478" 
d="M35 24v148q40 -28 66 -41.5t52 -13.5q92 0 92 93v457h162v-464q0 -115 -62 -165.5t-153 -50.5q-78 0 -157 37z" />
    <glyph glyph-name="Jcircumflex" unicode="&#x134;" horiz-adv-x="478" 
d="M35 24v148q40 -28 66 -41.5t52 -13.5q92 0 92 93v457h162v-464q0 -115 -62 -165.5t-153 -50.5q-78 0 -157 37zM181 709l88 121h121l87 -121h-99l-49 59l-49 -59h-99z" />
    <glyph glyph-name="K" unicode="K" horiz-adv-x="680" 
d="M459 0l-179 261l-47 -53v-208h-162v667h162v-278l204 278h204l-250 -282l271 -385h-203z" />
    <glyph glyph-name="Kcommaaccent" unicode="&#x136;" horiz-adv-x="680" 
d="M459 0l-179 261l-47 -53v-208h-162v667h162v-278l204 278h204l-250 -282l271 -385h-203zM253 -125q23 6 31 24t8 51h112q2 -64 -39 -103t-112 -41v69z" />
    <glyph glyph-name="L" unicode="L" horiz-adv-x="555" 
d="M71 0v667h162v-540h290v-127h-452z" />
    <glyph glyph-name="uni01C7" unicode="&#x1c7;" horiz-adv-x="1033" 
d="M71 0v667h162v-540h290v-127h-452zM590 24v148q40 -28 66 -41.5t52 -13.5q92 0 92 93v457h162v-464q0 -115 -62 -165.5t-153 -50.5q-78 0 -157 37z" />
    <glyph glyph-name="Lacute" unicode="&#x139;" horiz-adv-x="555" 
d="M71 0v667h162v-540h290v-127h-452zM120 719l36 113h156l-118 -113h-74z" />
    <glyph glyph-name="Lcaron" unicode="&#x13d;" horiz-adv-x="559" 
d="M71 0v667h162v-540h290v-127h-452zM357 594q23 6 31 24t8 51h112q2 -64 -39 -103t-112 -41v69z" />
    <glyph glyph-name="Lcommaaccent" unicode="&#x13b;" horiz-adv-x="555" 
d="M71 0v667h162v-540h290v-127h-452zM197 -125q23 6 31 24t8 51h112q2 -64 -39 -103t-112 -41v69z" />
    <glyph glyph-name="Ldot" unicode="&#x13f;" horiz-adv-x="555" 
d="M71 0v667h162v-540h290v-127h-452zM343 271v121h125v-121h-125z" />
    <glyph glyph-name="uni1E36" unicode="&#x1e36;" horiz-adv-x="555" 
d="M71 0v667h162v-540h290v-127h-452zM226 -150v100h108v-100h-108z" />
    <glyph glyph-name="uni01C8" unicode="&#x1c8;" horiz-adv-x="859" 
d="M71 0v667h162v-540h290v-127h-452zM639 582v115h154v-115h-154zM562 -72q5 -1 15 -1q64 0 64 69v510h149l2 -510q0 -102 -61.5 -145.5t-168.5 -43.5v121z" />
    <glyph glyph-name="uni1E3A" unicode="&#x1e3a;" horiz-adv-x="555" 
d="M71 0v667h162v-540h290v-127h-452zM138 -144v95h276v-95h-276z" />
    <glyph glyph-name="Lslash" unicode="&#x141;" horiz-adv-x="560" 
d="M233 127h290v-127h-452v667h162v-266l54 27v-66l-54 -27v-208z" />
    <glyph glyph-name="M" unicode="M" horiz-adv-x="846" 
d="M614 667h161v-667h-162v451l-196 -261l-191 260v-450h-155v667h165l187 -260z" />
    <glyph glyph-name="uni1E42" unicode="&#x1e42;" horiz-adv-x="846" 
d="M614 667h161v-667h-162v451l-196 -261l-191 260v-450h-155v667h165l187 -260zM369 -150v100h108v-100h-108z" />
    <glyph glyph-name="N" unicode="N" horiz-adv-x="724" 
d="M504 667h149v-667h-122l-311 406v-406h-149v667h138l295 -397v397z" />
    <glyph glyph-name="uni01CA" unicode="&#x1ca;" horiz-adv-x="1202" 
d="M504 667h149v-667h-122l-311 406v-406h-149v667h138l295 -397v397zM759 24v148q40 -28 66 -41.5t52 -13.5q92 0 92 93v457h162v-464q0 -115 -62 -165.5t-153 -50.5q-78 0 -157 37z" />
    <glyph glyph-name="Nacute" unicode="&#x143;" horiz-adv-x="724" 
d="M504 667h149v-667h-122l-311 406v-406h-149v667h138l295 -397v397zM324 719l36 113h156l-118 -113h-74z" />
    <glyph glyph-name="Ncaron" unicode="&#x147;" horiz-adv-x="724" 
d="M504 667h149v-667h-122l-311 406v-406h-149v667h138l295 -397v397zM302 700l-81 121h95l43 -58l43 58h95l-73 -121h-122z" />
    <glyph glyph-name="Ncommaaccent" unicode="&#x145;" horiz-adv-x="724" 
d="M504 667h149v-667h-122l-311 406v-406h-149v667h138l295 -397v397zM280 -125q23 6 31 24t8 51h112q2 -64 -39 -103t-112 -41v69z" />
    <glyph glyph-name="uni1E46" unicode="&#x1e46;" horiz-adv-x="724" 
d="M504 667h149v-667h-122l-311 406v-406h-149v667h138l295 -397v397zM309 -150v100h108v-100h-108z" />
    <glyph glyph-name="Eng" unicode="&#x14a;" horiz-adv-x="772" 
d="M683 667v-670q-2 -100 -63 -142t-167 -42v107q42 0 65 16t23 55v8l-312 448v-447h-142v667h145l309 -449v449h142z" />
    <glyph glyph-name="uni019D" unicode="&#x19d;" horiz-adv-x="739" 
d="M668 667v-667h-122l-311 406v-410q0 -102 -60.5 -145.5t-167.5 -43.5v121q5 -1 15 -1q64 0 64 69v671h138l295 -397v397h149z" />
    <glyph glyph-name="uni01CB" unicode="&#x1cb;" horiz-adv-x="1028" 
d="M504 667h149v-667h-122l-311 406v-406h-149v667h138l295 -397v397zM808 582v115h154v-115h-154zM731 -72q5 -1 15 -1q64 0 64 69v510h149l2 -510q0 -102 -61.5 -145.5t-168.5 -43.5v121z" />
    <glyph glyph-name="uni1E48" unicode="&#x1e48;" horiz-adv-x="724" 
d="M504 667h149v-667h-122l-311 406v-406h-149v667h138l295 -397v397zM221 -144v95h276v-95h-276z" />
    <glyph glyph-name="Ntilde" unicode="&#xd1;" horiz-adv-x="724" 
d="M504 667h149v-667h-122l-311 406v-406h-149v667h138l295 -397v397zM186 720q-2 38 12 70t40.5 51t60.5 19q25 0 45.5 -9.5t46.5 -27.5q19 -14 32.5 -20.5t27.5 -6.5q37 0 33 59h73q2 -63 -30.5 -100.5t-81.5 -37.5q-34 0 -56.5 11t-48.5 30q-18 13 -27 18t-20 5
q-20 0 -30 -18t-8 -43h-69z" />
    <glyph glyph-name="O" unicode="O" horiz-adv-x="737" 
d="M129 73q-86 87 -86 260q0 170 84.5 258.5t240.5 88.5q153 0 239.5 -86.5t86.5 -259.5q0 -170 -84.5 -259t-241.5 -89q-153 0 -239 87zM487 169q40 50 40 165t-39.5 164.5t-119.5 49.5q-79 0 -118.5 -50t-39.5 -166q0 -114 39.5 -163.5t118.5 -49.5t119 50z" />
    <glyph glyph-name="Oacute" unicode="&#xd3;" horiz-adv-x="737" 
d="M129 73q-86 87 -86 260q0 170 84.5 258.5t240.5 88.5q153 0 239.5 -86.5t86.5 -259.5q0 -170 -84.5 -259t-241.5 -89q-153 0 -239 87zM487 169q40 50 40 165t-39.5 164.5t-119.5 49.5q-79 0 -118.5 -50t-39.5 -166q0 -114 39.5 -163.5t118.5 -49.5t119 50zM332 740
l36 113h156l-118 -113h-74z" />
    <glyph glyph-name="Obreve" unicode="&#x14e;" horiz-adv-x="737" 
d="M129 73q-86 87 -86 260q0 170 84.5 258.5t240.5 88.5q153 0 239.5 -86.5t86.5 -259.5q0 -170 -84.5 -259t-241.5 -89q-153 0 -239 87zM487 169q40 50 40 165t-39.5 164.5t-119.5 49.5q-79 0 -118.5 -50t-39.5 -166q0 -114 39.5 -163.5t118.5 -49.5t119 50zM220 855h83
q8 -24 25 -41t43 -17q46 0 67 58h84q-7 -61 -44.5 -97t-106.5 -36q-127 0 -151 133z" />
    <glyph glyph-name="uni01D1" unicode="&#x1d1;" horiz-adv-x="737" 
d="M129 73q-86 87 -86 260q0 170 84.5 258.5t240.5 88.5q153 0 239.5 -86.5t86.5 -259.5q0 -170 -84.5 -259t-241.5 -89q-153 0 -239 87zM487 169q40 50 40 165t-39.5 164.5t-119.5 49.5q-79 0 -118.5 -50t-39.5 -166q0 -114 39.5 -163.5t118.5 -49.5t119 50zM310 721
l-81 121h95l43 -58l43 58h95l-73 -121h-122z" />
    <glyph glyph-name="Ocircumflex" unicode="&#xd4;" horiz-adv-x="737" 
d="M129 73q-86 87 -86 260q0 170 84.5 258.5t240.5 88.5q153 0 239.5 -86.5t86.5 -259.5q0 -170 -84.5 -259t-241.5 -89q-153 0 -239 87zM487 169q40 50 40 165t-39.5 164.5t-119.5 49.5q-79 0 -118.5 -50t-39.5 -166q0 -114 39.5 -163.5t118.5 -49.5t119 50zM223 730
l88 121h121l87 -121h-99l-49 59l-49 -59h-99z" />
    <glyph glyph-name="uni1ED0" unicode="&#x1ed0;" horiz-adv-x="737" 
d="M129 73q-86 87 -86 260q0 170 84.5 258.5t240.5 88.5q153 0 239.5 -86.5t86.5 -259.5q0 -170 -84.5 -259t-241.5 -89q-153 0 -239 87zM487 169q40 50 40 165t-39.5 164.5t-119.5 49.5q-79 0 -118.5 -50t-39.5 -166q0 -114 39.5 -163.5t118.5 -49.5t119 50zM224 732
l88 121h121l87 -121h-99l-49 59l-49 -59h-99zM491 805l36 113h156l-118 -113h-74z" />
    <glyph glyph-name="uni1ED8" unicode="&#x1ed8;" horiz-adv-x="737" 
d="M129 73q-86 87 -86 260q0 170 84.5 258.5t240.5 88.5q153 0 239.5 -86.5t86.5 -259.5q0 -170 -84.5 -259t-241.5 -89q-153 0 -239 87zM487 169q40 50 40 165t-39.5 164.5t-119.5 49.5q-79 0 -118.5 -50t-39.5 -166q0 -114 39.5 -163.5t118.5 -49.5t119 50zM317 -150v100
h108v-100h-108zM223 730l88 121h121l87 -121h-99l-49 59l-49 -59h-99z" />
    <glyph glyph-name="uni1ED2" unicode="&#x1ed2;" horiz-adv-x="737" 
d="M129 73q-86 87 -86 260q0 170 84.5 258.5t240.5 88.5q153 0 239.5 -86.5t86.5 -259.5q0 -170 -84.5 -259t-241.5 -89q-153 0 -239 87zM487 169q40 50 40 165t-39.5 164.5t-119.5 49.5q-79 0 -118.5 -50t-39.5 -166q0 -114 39.5 -163.5t118.5 -49.5t119 50zM230 732
l88 121h121l87 -121h-99l-49 59l-49 -59h-99zM162 804l-97 111h132l47 -111h-82z" />
    <glyph glyph-name="uni1ED4" unicode="&#x1ed4;" horiz-adv-x="737" 
d="M129 73q-86 87 -86 260q0 170 84.5 258.5t240.5 88.5q153 0 239.5 -86.5t86.5 -259.5q0 -170 -84.5 -259t-241.5 -89q-153 0 -239 87zM487 169q40 50 40 165t-39.5 164.5t-119.5 49.5q-79 0 -118.5 -50t-39.5 -166q0 -114 39.5 -163.5t118.5 -49.5t119 50zM214 736
l88 121h121l87 -121h-99l-49 59l-49 -59h-99zM490 855q17 1 27 8t10 16q0 24 -42 24q-13 0 -30 -3v58q22 5 58 5q50 0 81 -19t31 -59q0 -28 -15 -45t-42 -18v-24h-78v57z" />
    <glyph glyph-name="uni1ED6" unicode="&#x1ed6;" horiz-adv-x="737" 
d="M129 73q-86 87 -86 260q0 170 84.5 258.5t240.5 88.5q153 0 239.5 -86.5t86.5 -259.5q0 -170 -84.5 -259t-241.5 -89q-153 0 -239 87zM487 169q40 50 40 165t-39.5 164.5t-119.5 49.5q-79 0 -118.5 -50t-39.5 -166q0 -114 39.5 -163.5t118.5 -49.5t119 50zM229 720
l88 121h121l87 -121h-99l-49 59l-49 -59h-99zM192 884q-2 38 12 70t40.5 51t60.5 19q25 0 45.5 -9.5t46.5 -27.5q19 -14 32.5 -20.5t27.5 -6.5q37 0 33 59h73q2 -63 -30.5 -100.5t-81.5 -37.5q-34 0 -56.5 11t-48.5 30q-18 13 -27 18t-20 5q-20 0 -30 -18t-8 -43h-69z" />
    <glyph glyph-name="uni020C" unicode="&#x20c;" horiz-adv-x="737" 
d="M129 73q-86 87 -86 260q0 170 84.5 258.5t240.5 88.5q153 0 239.5 -86.5t86.5 -259.5q0 -170 -84.5 -259t-241.5 -89q-153 0 -239 87zM487 169q40 50 40 165t-39.5 164.5t-119.5 49.5q-79 0 -118.5 -50t-39.5 -166q0 -114 39.5 -163.5t118.5 -49.5t119 50zM256 741
l-97 111h132l47 -111h-82zM427 741l-97 111h132l47 -111h-82z" />
    <glyph glyph-name="Odieresis" unicode="&#xd6;" horiz-adv-x="737" 
d="M129 73q-86 87 -86 260q0 170 84.5 258.5t240.5 88.5q153 0 239.5 -86.5t86.5 -259.5q0 -170 -84.5 -259t-241.5 -89q-153 0 -239 87zM487 169q40 50 40 165t-39.5 164.5t-119.5 49.5q-79 0 -118.5 -50t-39.5 -166q0 -114 39.5 -163.5t118.5 -49.5t119 50zM212 724v100
h128v-100h-128zM395 724v100h129v-100h-129z" />
    <glyph glyph-name="uni022A" unicode="&#x22a;" horiz-adv-x="737" 
d="M129 73q-86 87 -86 260q0 170 84.5 258.5t240.5 88.5q153 0 239.5 -86.5t86.5 -259.5q0 -170 -84.5 -259t-241.5 -89q-153 0 -239 87zM487 169q40 50 40 165t-39.5 164.5t-119.5 49.5q-79 0 -118.5 -50t-39.5 -166q0 -114 39.5 -163.5t118.5 -49.5t119 50zM212 724v100
h128v-100h-128zM395 724v100h129v-100h-129zM229 878v95h276v-95h-276z" />
    <glyph glyph-name="uni0230" unicode="&#x230;" horiz-adv-x="737" 
d="M129 73q-86 87 -86 260q0 170 84.5 258.5t240.5 88.5q153 0 239.5 -86.5t86.5 -259.5q0 -170 -84.5 -259t-241.5 -89q-153 0 -239 87zM487 169q40 50 40 165t-39.5 164.5t-119.5 49.5q-79 0 -118.5 -50t-39.5 -166q0 -114 39.5 -163.5t118.5 -49.5t119 50zM301 718v100
h121v-100h-121zM229 872v95h276v-95h-276z" />
    <glyph glyph-name="uni1ECC" unicode="&#x1ecc;" horiz-adv-x="737" 
d="M129 73q-86 87 -86 260q0 170 84.5 258.5t240.5 88.5q153 0 239.5 -86.5t86.5 -259.5q0 -170 -84.5 -259t-241.5 -89q-153 0 -239 87zM487 169q40 50 40 165t-39.5 164.5t-119.5 49.5q-79 0 -118.5 -50t-39.5 -166q0 -114 39.5 -163.5t118.5 -49.5t119 50zM317 -150v100
h108v-100h-108z" />
    <glyph glyph-name="Ograve" unicode="&#xd2;" horiz-adv-x="737" 
d="M129 73q-86 87 -86 260q0 170 84.5 258.5t240.5 88.5q153 0 239.5 -86.5t86.5 -259.5q0 -170 -84.5 -259t-241.5 -89q-153 0 -239 87zM487 169q40 50 40 165t-39.5 164.5t-119.5 49.5q-79 0 -118.5 -50t-39.5 -166q0 -114 39.5 -163.5t118.5 -49.5t119 50zM335 737
l-97 111h132l47 -111h-82z" />
    <glyph glyph-name="uni1ECE" unicode="&#x1ece;" horiz-adv-x="737" 
d="M129 73q-86 87 -86 260q0 170 84.5 258.5t240.5 88.5q153 0 239.5 -86.5t86.5 -259.5q0 -170 -84.5 -259t-241.5 -89q-153 0 -239 87zM487 169q40 50 40 165t-39.5 164.5t-119.5 49.5q-79 0 -118.5 -50t-39.5 -166q0 -114 39.5 -163.5t118.5 -49.5t119 50zM322 782
q17 1 27 8t10 16q0 24 -42 24q-13 0 -30 -3v58q22 5 58 5q50 0 81 -19t31 -59q0 -28 -15 -45t-42 -18v-24h-78v57z" />
    <glyph glyph-name="Ohorn" unicode="&#x1a0;" horiz-adv-x="737" 
d="M694 334q0 -170 -84.5 -259t-241.5 -89q-153 0 -239 87t-86 260q0 170 84.5 258.5t240.5 88.5q61 0 110 -13q26 2 42.5 14.5t16.5 32.5v37h91v-56q0 -54 -43 -81q109 -88 109 -280zM487 169q40 50 40 165t-39.5 164.5t-119.5 49.5q-79 0 -118.5 -50t-39.5 -166
q0 -114 39.5 -163.5t118.5 -49.5t119 50z" />
    <glyph glyph-name="uni1EDA" unicode="&#x1eda;" horiz-adv-x="737" 
d="M694 334q0 -170 -84.5 -259t-241.5 -89q-153 0 -239 87t-86 260q0 170 84.5 258.5t240.5 88.5q61 0 110 -13q26 2 42.5 14.5t16.5 32.5v37h91v-56q0 -54 -43 -81q109 -88 109 -280zM487 169q40 50 40 165t-39.5 164.5t-119.5 49.5q-79 0 -118.5 -50t-39.5 -166
q0 -114 39.5 -163.5t118.5 -49.5t119 50zM332 740l36 113h156l-118 -113h-74z" />
    <glyph glyph-name="uni1EE2" unicode="&#x1ee2;" horiz-adv-x="737" 
d="M694 334q0 -170 -84.5 -259t-241.5 -89q-153 0 -239 87t-86 260q0 170 84.5 258.5t240.5 88.5q61 0 110 -13q26 2 42.5 14.5t16.5 32.5v37h91v-56q0 -54 -43 -81q109 -88 109 -280zM487 169q40 50 40 165t-39.5 164.5t-119.5 49.5q-79 0 -118.5 -50t-39.5 -166
q0 -114 39.5 -163.5t118.5 -49.5t119 50zM317 -150v100h108v-100h-108z" />
    <glyph glyph-name="uni1EDC" unicode="&#x1edc;" horiz-adv-x="737" 
d="M694 334q0 -170 -84.5 -259t-241.5 -89q-153 0 -239 87t-86 260q0 170 84.5 258.5t240.5 88.5q61 0 110 -13q26 2 42.5 14.5t16.5 32.5v37h91v-56q0 -54 -43 -81q109 -88 109 -280zM487 169q40 50 40 165t-39.5 164.5t-119.5 49.5q-79 0 -118.5 -50t-39.5 -166
q0 -114 39.5 -163.5t118.5 -49.5t119 50zM335 737l-97 111h132l47 -111h-82z" />
    <glyph glyph-name="uni1EDE" unicode="&#x1ede;" horiz-adv-x="737" 
d="M694 334q0 -170 -84.5 -259t-241.5 -89q-153 0 -239 87t-86 260q0 170 84.5 258.5t240.5 88.5q61 0 110 -13q26 2 42.5 14.5t16.5 32.5v37h91v-56q0 -54 -43 -81q109 -88 109 -280zM487 169q40 50 40 165t-39.5 164.5t-119.5 49.5q-79 0 -118.5 -50t-39.5 -166
q0 -114 39.5 -163.5t118.5 -49.5t119 50zM322 782q17 1 27 8t10 16q0 24 -42 24q-13 0 -30 -3v58q22 5 58 5q50 0 81 -19t31 -59q0 -28 -15 -45t-42 -18v-24h-78v57z" />
    <glyph glyph-name="uni1EE0" unicode="&#x1ee0;" horiz-adv-x="737" 
d="M694 334q0 -170 -84.5 -259t-241.5 -89q-153 0 -239 87t-86 260q0 170 84.5 258.5t240.5 88.5q61 0 110 -13q26 2 42.5 14.5t16.5 32.5v37h91v-56q0 -54 -43 -81q109 -88 109 -280zM487 169q40 50 40 165t-39.5 164.5t-119.5 49.5q-79 0 -118.5 -50t-39.5 -166
q0 -114 39.5 -163.5t118.5 -49.5t119 50zM194 741q-2 38 12 70t40.5 51t60.5 19q25 0 45.5 -9.5t46.5 -27.5q19 -14 32.5 -20.5t27.5 -6.5q37 0 33 59h73q2 -63 -30.5 -100.5t-81.5 -37.5q-34 0 -56.5 11t-48.5 30q-18 13 -27 18t-20 5q-20 0 -30 -18t-8 -43h-69z" />
    <glyph glyph-name="Ohungarumlaut" unicode="&#x150;" horiz-adv-x="737" 
d="M129 73q-86 87 -86 260q0 170 84.5 258.5t240.5 88.5q153 0 239.5 -86.5t86.5 -259.5q0 -170 -84.5 -259t-241.5 -89q-153 0 -239 87zM487 169q40 50 40 165t-39.5 164.5t-119.5 49.5q-79 0 -118.5 -50t-39.5 -166q0 -114 39.5 -163.5t118.5 -49.5t119 50zM258 739
l61 117h104l-90 -117h-75zM400 739l60 117h104l-90 -117h-74z" />
    <glyph glyph-name="uni020E" unicode="&#x20e;" horiz-adv-x="737" 
d="M129 73q-86 87 -86 260q0 170 84.5 258.5t240.5 88.5q153 0 239.5 -86.5t86.5 -259.5q0 -170 -84.5 -259t-241.5 -89q-153 0 -239 87zM487 169q40 50 40 165t-39.5 164.5t-119.5 49.5q-79 0 -118.5 -50t-39.5 -166q0 -114 39.5 -163.5t118.5 -49.5t119 50zM477.5 817
q37.5 -36 44.5 -97h-84q-21 58 -67 58q-26 0 -43 -17t-25 -41h-83q24 133 151 133q69 0 106.5 -36z" />
    <glyph glyph-name="Omacron" unicode="&#x14c;" horiz-adv-x="737" 
d="M129 73q-86 87 -86 260q0 170 84.5 258.5t240.5 88.5q153 0 239.5 -86.5t86.5 -259.5q0 -170 -84.5 -259t-241.5 -89q-153 0 -239 87zM487 169q40 50 40 165t-39.5 164.5t-119.5 49.5q-79 0 -118.5 -50t-39.5 -166q0 -114 39.5 -163.5t118.5 -49.5t119 50zM229 733v95
h276v-95h-276z" />
    <glyph glyph-name="uni1E52" unicode="&#x1e52;" horiz-adv-x="737" 
d="M129 73q-86 87 -86 260q0 170 84.5 258.5t240.5 88.5q153 0 239.5 -86.5t86.5 -259.5q0 -170 -84.5 -259t-241.5 -89q-153 0 -239 87zM487 169q40 50 40 165t-39.5 164.5t-119.5 49.5q-79 0 -118.5 -50t-39.5 -166q0 -114 39.5 -163.5t118.5 -49.5t119 50zM229 733v95
h276v-95h-276zM332 873l36 113h156l-118 -113h-74z" />
    <glyph glyph-name="uni1E50" unicode="&#x1e50;" horiz-adv-x="737" 
d="M129 73q-86 87 -86 260q0 170 84.5 258.5t240.5 88.5q153 0 239.5 -86.5t86.5 -259.5q0 -170 -84.5 -259t-241.5 -89q-153 0 -239 87zM487 169q40 50 40 165t-39.5 164.5t-119.5 49.5q-79 0 -118.5 -50t-39.5 -166q0 -114 39.5 -163.5t118.5 -49.5t119 50zM229 733v95
h276v-95h-276zM335 870l-97 111h132l47 -111h-82z" />
    <glyph glyph-name="uni01EA" unicode="&#x1ea;" horiz-adv-x="737" 
d="M642 118q-52 -84 -150 -115l14 -3q-44 -18 -70.5 -38t-26.5 -39q0 -20 9 -28t26 -8q29 0 65 34v-85q-19 -11 -39.5 -17.5t-51.5 -6.5q-65 0 -96 24t-31 72q0 44 49 79q-141 8 -219 94.5t-78 251.5q0 170 84.5 258.5t240.5 88.5q153 0 239.5 -86.5t86.5 -259.5
q0 -132 -52 -216zM487 169q40 50 40 165t-39.5 164.5t-119.5 49.5q-79 0 -118.5 -50t-39.5 -166q0 -114 39.5 -163.5t118.5 -49.5t119 50z" />
    <glyph glyph-name="Oslash" unicode="&#xd8;" horiz-adv-x="737" 
d="M630 567q64 -87 64 -233q0 -170 -84.5 -259t-241.5 -89q-123 0 -202 55l-36 -41h-106l85 97q-66 86 -66 236q0 170 84.5 258.5t240.5 88.5q124 0 204 -56l37 42h108zM222 226l252 287q-38 35 -106 35q-79 0 -118.5 -50t-39.5 -166q0 -64 12 -106zM516 438l-252 -286
q37 -33 104 -33q79 0 119 50t40 165q0 58 -11 104z" />
    <glyph glyph-name="Oslashacute" unicode="&#x1fe;" horiz-adv-x="737" 
d="M630 567q64 -87 64 -233q0 -170 -84.5 -259t-241.5 -89q-123 0 -202 55l-36 -41h-106l85 97q-66 86 -66 236q0 170 84.5 258.5t240.5 88.5q124 0 204 -56l37 42h108zM222 226l252 287q-38 35 -106 35q-79 0 -118.5 -50t-39.5 -166q0 -64 12 -106zM516 438l-252 -286
q37 -33 104 -33q79 0 119 50t40 165q0 58 -11 104zM329 719l36 113h156l-118 -113h-74z" />
    <glyph glyph-name="Otilde" unicode="&#xd5;" horiz-adv-x="737" 
d="M129 73q-86 87 -86 260q0 170 84.5 258.5t240.5 88.5q153 0 239.5 -86.5t86.5 -259.5q0 -170 -84.5 -259t-241.5 -89q-153 0 -239 87zM487 169q40 50 40 165t-39.5 164.5t-119.5 49.5q-79 0 -118.5 -50t-39.5 -166q0 -114 39.5 -163.5t118.5 -49.5t119 50zM194 741
q-2 38 12 70t40.5 51t60.5 19q25 0 45.5 -9.5t46.5 -27.5q19 -14 32.5 -20.5t27.5 -6.5q37 0 33 59h73q2 -63 -30.5 -100.5t-81.5 -37.5q-34 0 -56.5 11t-48.5 30q-18 13 -27 18t-20 5q-20 0 -30 -18t-8 -43h-69z" />
    <glyph glyph-name="uni1E4C" unicode="&#x1e4c;" horiz-adv-x="737" 
d="M129 73q-86 87 -86 260q0 170 84.5 258.5t240.5 88.5q153 0 239.5 -86.5t86.5 -259.5q0 -170 -84.5 -259t-241.5 -89q-153 0 -239 87zM487 169q40 50 40 165t-39.5 164.5t-119.5 49.5q-79 0 -118.5 -50t-39.5 -166q0 -114 39.5 -163.5t118.5 -49.5t119 50zM194 741
q-2 38 12 70t40.5 51t60.5 19q25 0 45.5 -9.5t46.5 -27.5q19 -14 32.5 -20.5t27.5 -6.5q37 0 33 59h73q2 -63 -30.5 -100.5t-81.5 -37.5q-34 0 -56.5 11t-48.5 30q-18 13 -27 18t-20 5q-20 0 -30 -18t-8 -43h-69zM332 942l36 113h156l-118 -113h-74z" />
    <glyph glyph-name="uni1E4E" unicode="&#x1e4e;" horiz-adv-x="737" 
d="M129 73q-86 87 -86 260q0 170 84.5 258.5t240.5 88.5q153 0 239.5 -86.5t86.5 -259.5q0 -170 -84.5 -259t-241.5 -89q-153 0 -239 87zM487 169q40 50 40 165t-39.5 164.5t-119.5 49.5q-79 0 -118.5 -50t-39.5 -166q0 -114 39.5 -163.5t118.5 -49.5t119 50zM194 741
q-2 38 12 70t40.5 51t60.5 19q25 0 45.5 -9.5t46.5 -27.5q19 -14 32.5 -20.5t27.5 -6.5q37 0 33 59h73q2 -63 -30.5 -100.5t-81.5 -37.5q-34 0 -56.5 11t-48.5 30q-18 13 -27 18t-20 5q-20 0 -30 -18t-8 -43h-69zM212 926v100h128v-100h-128zM395 926v100h129v-100h-129z
" />
    <glyph glyph-name="uni022C" unicode="&#x22c;" horiz-adv-x="737" 
d="M129 73q-86 87 -86 260q0 170 84.5 258.5t240.5 88.5q153 0 239.5 -86.5t86.5 -259.5q0 -170 -84.5 -259t-241.5 -89q-153 0 -239 87zM487 169q40 50 40 165t-39.5 164.5t-119.5 49.5q-79 0 -118.5 -50t-39.5 -166q0 -114 39.5 -163.5t118.5 -49.5t119 50zM194 741
q-2 38 12 70t40.5 51t60.5 19q25 0 45.5 -9.5t46.5 -27.5q19 -14 32.5 -20.5t27.5 -6.5q37 0 33 59h73q2 -63 -30.5 -100.5t-81.5 -37.5q-34 0 -56.5 11t-48.5 30q-18 13 -27 18t-20 5q-20 0 -30 -18t-8 -43h-69zM229 935v95h276v-95h-276z" />
    <glyph glyph-name="OE" unicode="&#x152;" horiz-adv-x="1051" 
d="M691 542v-145h256v-126h-256v-146h295v-125h-457v18q-69 -32 -161 -32q-153 0 -239 87t-86 260q0 170 84.5 258.5t240.5 88.5q93 0 161 -31v18h457v-125h-295zM487 169q40 50 40 165t-39.5 164.5t-119.5 49.5q-79 0 -118.5 -50t-39.5 -166q0 -114 39.5 -163.5
t118.5 -49.5t119 50z" />
    <glyph glyph-name="P" unicode="P" horiz-adv-x="664" 
d="M233 0h-162v667h300q120 0 185.5 -54t65.5 -163q0 -111 -66.5 -171t-184.5 -60h-138v-219zM351 344q49 0 72.5 25.5t23.5 69.5q0 102 -96 102h-118v-197h118z" />
    <glyph glyph-name="Thorn" unicode="&#xde;" horiz-adv-x="628" 
d="M86 667h142v-100h99q118 0 183 -59t65 -166q0 -109 -64.5 -168t-183.5 -59h-99v-115h-142v667zM313 235q67 0 93.5 31t26.5 76q0 44 -27 75t-93 31h-85v-213h85z" />
    <glyph glyph-name="Q" unicode="Q" horiz-adv-x="737" 
d="M628 -7q18 0 31.5 4t33.5 16v-100q-33 -18 -95 -18q-112 0 -154 89q-40 -5 -76 -5q-161 0 -243 86.5t-82 267.5q0 177 80.5 265.5t244.5 88.5q162 0 244 -86.5t82 -266.5q0 -222 -125 -304q26 -37 59 -37zM249 509.5q-39 -52.5 -39 -177.5q0 -69 11 -119v4q18 27 55 46.5
t81 19.5q100 0 152 -95q18 54 18 146q0 124 -39.5 176t-119.5 52t-119 -52.5zM299 103q29 -12 69 -12q15 0 41 4q-14 36 -35.5 55.5t-47.5 19.5q-43 0 -76 -27q20 -28 49 -40z" />
    <glyph glyph-name="R" unicode="R" horiz-adv-x="709" 
d="M465 0l-132 230h-100v-230h-162v667h325q115 0 178 -53t63 -158q0 -65 -36 -120.5t-100 -74.5l170 -261h-206zM462 448q0 46 -22 70t-64 24h-143v-193h136q93 0 93 99z" />
    <glyph glyph-name="Racute" unicode="&#x154;" horiz-adv-x="709" 
d="M465 0l-132 230h-100v-230h-162v667h325q115 0 178 -53t63 -158q0 -65 -36 -120.5t-100 -74.5l170 -261h-206zM462 448q0 46 -22 70t-64 24h-143v-193h136q93 0 93 99zM289 719l36 113h156l-118 -113h-74z" />
    <glyph glyph-name="Rcaron" unicode="&#x158;" horiz-adv-x="709" 
d="M465 0l-132 230h-100v-230h-162v667h325q115 0 178 -53t63 -158q0 -65 -36 -120.5t-100 -74.5l170 -261h-206zM462 448q0 46 -22 70t-64 24h-143v-193h136q93 0 93 99zM267 700l-81 121h95l43 -58l43 58h95l-73 -121h-122z" />
    <glyph glyph-name="Rcommaaccent" unicode="&#x156;" horiz-adv-x="709" 
d="M465 0l-132 230h-100v-230h-162v667h325q115 0 178 -53t63 -158q0 -65 -36 -120.5t-100 -74.5l170 -261h-206zM462 448q0 46 -22 70t-64 24h-143v-193h136q93 0 93 99zM272 -125q23 6 31 24t8 51h112q2 -64 -39 -103t-112 -41v69z" />
    <glyph glyph-name="uni0210" unicode="&#x210;" horiz-adv-x="709" 
d="M465 0l-132 230h-100v-230h-162v667h325q115 0 178 -53t63 -158q0 -65 -36 -120.5t-100 -74.5l170 -261h-206zM462 448q0 46 -22 70t-64 24h-143v-193h136q93 0 93 99zM213 720l-97 111h132l47 -111h-82zM384 720l-97 111h132l47 -111h-82z" />
    <glyph glyph-name="uni0212" unicode="&#x212;" horiz-adv-x="709" 
d="M465 0l-132 230h-100v-230h-162v667h325q115 0 178 -53t63 -158q0 -65 -36 -120.5t-100 -74.5l170 -261h-206zM462 448q0 46 -22 70t-64 24h-143v-193h136q93 0 93 99zM434.5 796q37.5 -36 44.5 -97h-84q-21 58 -67 58q-26 0 -43 -17t-25 -41h-83q24 133 151 133
q69 0 106.5 -36z" />
    <glyph glyph-name="uni1E5E" unicode="&#x1e5e;" horiz-adv-x="709" 
d="M465 0l-132 230h-100v-230h-162v667h325q115 0 178 -53t63 -158q0 -65 -36 -120.5t-100 -74.5l170 -261h-206zM462 448q0 46 -22 70t-64 24h-143v-193h136q93 0 93 99zM213 -144v95h276v-95h-276z" />
    <glyph glyph-name="S" unicode="S" horiz-adv-x="577" 
d="M163 -3.5q-56 10.5 -104 35.5v154q45 -36 102.5 -55.5t112.5 -19.5q94 0 94 71q0 31 -30 48.5t-97 39.5q-31 10 -38 13q-72 24 -113.5 65t-41.5 122q0 57 28 105.5t86 77.5t143 29q59 0 101.5 -10.5t90.5 -33.5v-155q-42 32 -90 53t-97 21q-44 0 -70.5 -17.5t-26.5 -50.5
q0 -26 16 -42.5t39.5 -25.5t75.5 -25q62 -18 102 -40t64 -59t24 -95q0 -61 -28 -110t-82.5 -77.5t-128.5 -28.5q-76 0 -132 10.5z" />
    <glyph glyph-name="Sacute" unicode="&#x15a;" horiz-adv-x="577" 
d="M163 -3.5q-56 10.5 -104 35.5v154q45 -36 102.5 -55.5t112.5 -19.5q94 0 94 71q0 31 -30 48.5t-97 39.5q-31 10 -38 13q-72 24 -113.5 65t-41.5 122q0 57 28 105.5t86 77.5t143 29q59 0 101.5 -10.5t90.5 -33.5v-155q-42 32 -90 53t-97 21q-44 0 -70.5 -17.5t-26.5 -50.5
q0 -26 16 -42.5t39.5 -25.5t75.5 -25q62 -18 102 -40t64 -59t24 -95q0 -61 -28 -110t-82.5 -77.5t-128.5 -28.5q-76 0 -132 10.5zM265 740l36 113h156l-118 -113h-74z" />
    <glyph glyph-name="uni1E64" unicode="&#x1e64;" horiz-adv-x="577" 
d="M163 -3.5q-56 10.5 -104 35.5v154q45 -36 102.5 -55.5t112.5 -19.5q94 0 94 71q0 31 -30 48.5t-97 39.5q-31 10 -38 13q-72 24 -113.5 65t-41.5 122q0 57 28 105.5t86 77.5t143 29q59 0 101.5 -10.5t90.5 -33.5v-155q-42 32 -90 53t-97 21q-44 0 -70.5 -17.5t-26.5 -50.5
q0 -26 16 -42.5t39.5 -25.5t75.5 -25q62 -18 102 -40t64 -59t24 -95q0 -61 -28 -110t-82.5 -77.5t-128.5 -28.5q-76 0 -132 10.5zM306 740l36 113h156l-118 -113h-74zM151 743v100h121v-100h-121z" />
    <glyph glyph-name="Scaron" unicode="&#x160;" horiz-adv-x="577" 
d="M163 -3.5q-56 10.5 -104 35.5v154q45 -36 102.5 -55.5t112.5 -19.5q94 0 94 71q0 31 -30 48.5t-97 39.5q-31 10 -38 13q-72 24 -113.5 65t-41.5 122q0 57 28 105.5t86 77.5t143 29q59 0 101.5 -10.5t90.5 -33.5v-155q-42 32 -90 53t-97 21q-44 0 -70.5 -17.5t-26.5 -50.5
q0 -26 16 -42.5t39.5 -25.5t75.5 -25q62 -18 102 -40t64 -59t24 -95q0 -61 -28 -110t-82.5 -77.5t-128.5 -28.5q-76 0 -132 10.5zM243 721l-81 121h95l43 -58l43 58h95l-73 -121h-122z" />
    <glyph glyph-name="uni1E66" unicode="&#x1e66;" horiz-adv-x="577" 
d="M163 -3.5q-56 10.5 -104 35.5v154q45 -36 102.5 -55.5t112.5 -19.5q94 0 94 71q0 31 -30 48.5t-97 39.5q-31 10 -38 13q-72 24 -113.5 65t-41.5 122q0 57 28 105.5t86 77.5t143 29q59 0 101.5 -10.5t90.5 -33.5v-155q-42 32 -90 53t-97 21q-44 0 -70.5 -17.5t-26.5 -50.5
q0 -26 16 -42.5t39.5 -25.5t75.5 -25q62 -18 102 -40t64 -59t24 -95q0 -61 -28 -110t-82.5 -77.5t-128.5 -28.5q-76 0 -132 10.5zM243 721l-81 121h95l43 -58l43 58h95l-73 -121h-122zM237 880v100h121v-100h-121z" />
    <glyph glyph-name="Scedilla" unicode="&#x15e;" horiz-adv-x="577" 
d="M508.5 97q-25.5 -47 -74 -76.5t-116.5 -33.5l-44 -109h-134l78 111q-92 9 -159 43v154q45 -36 102.5 -55.5t112.5 -19.5q94 0 94 71q0 31 -30 48.5t-97 39.5q-31 10 -38 13q-72 24 -113.5 65t-41.5 122q0 57 28 105.5t86 77.5t143 29q59 0 101.5 -10.5t90.5 -33.5v-155
q-42 32 -90 53t-97 21q-44 0 -70.5 -17.5t-26.5 -50.5q0 -26 16 -42.5t39.5 -25.5t75.5 -25q62 -18 102 -40t64 -59t24 -95t-25.5 -105z" />
    <glyph glyph-name="Scircumflex" unicode="&#x15c;" horiz-adv-x="577" 
d="M163 -3.5q-56 10.5 -104 35.5v154q45 -36 102.5 -55.5t112.5 -19.5q94 0 94 71q0 31 -30 48.5t-97 39.5q-31 10 -38 13q-72 24 -113.5 65t-41.5 122q0 57 28 105.5t86 77.5t143 29q59 0 101.5 -10.5t90.5 -33.5v-155q-42 32 -90 53t-97 21q-44 0 -70.5 -17.5t-26.5 -50.5
q0 -26 16 -42.5t39.5 -25.5t75.5 -25q62 -18 102 -40t64 -59t24 -95q0 -61 -28 -110t-82.5 -77.5t-128.5 -28.5q-76 0 -132 10.5zM156 730l88 121h121l87 -121h-99l-49 59l-49 -59h-99z" />
    <glyph glyph-name="Scommaaccent" unicode="&#x218;" horiz-adv-x="577" 
d="M163 -3.5q-56 10.5 -104 35.5v154q45 -36 102.5 -55.5t112.5 -19.5q94 0 94 71q0 31 -30 48.5t-97 39.5q-31 10 -38 13q-72 24 -113.5 65t-41.5 122q0 57 28 105.5t86 77.5t143 29q59 0 101.5 -10.5t90.5 -33.5v-155q-42 32 -90 53t-97 21q-44 0 -70.5 -17.5t-26.5 -50.5
q0 -26 16 -42.5t39.5 -25.5t75.5 -25q62 -18 102 -40t64 -59t24 -95q0 -61 -28 -110t-82.5 -77.5t-128.5 -28.5q-76 0 -132 10.5zM183 -125q23 6 31 24t8 51h112q2 -64 -39 -103t-112 -41v69z" />
    <glyph glyph-name="uni1E60" unicode="&#x1e60;" horiz-adv-x="577" 
d="M163 -3.5q-56 10.5 -104 35.5v154q45 -36 102.5 -55.5t112.5 -19.5q94 0 94 71q0 31 -30 48.5t-97 39.5q-31 10 -38 13q-72 24 -113.5 65t-41.5 122q0 57 28 105.5t86 77.5t143 29q59 0 101.5 -10.5t90.5 -33.5v-155q-42 32 -90 53t-97 21q-44 0 -70.5 -17.5t-26.5 -50.5
q0 -26 16 -42.5t39.5 -25.5t75.5 -25q62 -18 102 -40t64 -59t24 -95q0 -61 -28 -110t-82.5 -77.5t-128.5 -28.5q-76 0 -132 10.5zM234 718v100h121v-100h-121z" />
    <glyph glyph-name="uni1E62" unicode="&#x1e62;" horiz-adv-x="577" 
d="M163 -3.5q-56 10.5 -104 35.5v154q45 -36 102.5 -55.5t112.5 -19.5q94 0 94 71q0 31 -30 48.5t-97 39.5q-31 10 -38 13q-72 24 -113.5 65t-41.5 122q0 57 28 105.5t86 77.5t143 29q59 0 101.5 -10.5t90.5 -33.5v-155q-42 32 -90 53t-97 21q-44 0 -70.5 -17.5t-26.5 -50.5
q0 -26 16 -42.5t39.5 -25.5t75.5 -25q62 -18 102 -40t64 -59t24 -95q0 -61 -28 -110t-82.5 -77.5t-128.5 -28.5q-76 0 -132 10.5zM212 -150v100h108v-100h-108z" />
    <glyph glyph-name="uni1E68" unicode="&#x1e68;" horiz-adv-x="577" 
d="M163 -3.5q-56 10.5 -104 35.5v154q45 -36 102.5 -55.5t112.5 -19.5q94 0 94 71q0 31 -30 48.5t-97 39.5q-31 10 -38 13q-72 24 -113.5 65t-41.5 122q0 57 28 105.5t86 77.5t143 29q59 0 101.5 -10.5t90.5 -33.5v-155q-42 32 -90 53t-97 21q-44 0 -70.5 -17.5t-26.5 -50.5
q0 -26 16 -42.5t39.5 -25.5t75.5 -25q62 -18 102 -40t64 -59t24 -95q0 -61 -28 -110t-82.5 -77.5t-128.5 -28.5q-76 0 -132 10.5zM212 -150v100h108v-100h-108zM234 718v100h121v-100h-121z" />
    <glyph glyph-name="uni1E9E" unicode="&#x1e9e;" horiz-adv-x="724" 
d="M644.5 327.5q33.5 -50.5 33.5 -129.5q0 -58 -29.5 -108t-83.5 -80.5t-122 -30.5q-35 0 -74 11.5t-68 31.5v146q57 -64 120 -64q41 0 65.5 23t24.5 68q0 62 -46.5 105t-117.5 69v22l151 120q-56 54 -132 54q-60 0 -97 -35.5t-37 -104.5l-1 -425h-160v440q0 115 74.5 178
t207.5 63q204 0 302 -167v-18l-107 -86q63 -32 96.5 -82.5z" />
    <glyph glyph-name="uni018F" unicode="&#x18f;" horiz-adv-x="739" 
d="M533 638q78 -43 120.5 -124.5t42.5 -194.5q0 -161 -89 -250.5t-250 -89.5q-317 0 -314 379h484q-10 99 -62.5 145.5t-148.5 46.5q-60 0 -123 -16t-105 -36v134q109 49 264 49q103 0 181 -43zM472 137q44 37 55 120h-326q9 -87 47 -122t115 -35q65 0 109 37z" />
    <glyph glyph-name="T" unicode="T" horiz-adv-x="587" 
d="M211 0v542h-187v125h539v-125h-190v-542h-162z" />
    <glyph glyph-name="Tbar" unicode="&#x166;" horiz-adv-x="587" 
d="M563 542h-190v-163h70v-91h-70v-288h-162v288h-68v91h68v163h-187v125h539v-125z" />
    <glyph glyph-name="Tcaron" unicode="&#x164;" horiz-adv-x="578" 
d="M266 724l-108 122h88l43 -52l43 52h88l-108 -122h-46zM217 0v537h-205v130h554v-130h-207v-537h-142z" />
    <glyph glyph-name="uni0162" unicode="&#x162;" horiz-adv-x="587" 
d="M24 667h539v-125h-190v-542h-22l-50 -122h-134l86 122h-42v542h-187v125z" />
    <glyph glyph-name="uni1E6E" unicode="&#x1e6e;" horiz-adv-x="587" 
d="M211 0v542h-187v125h539v-125h-190v-542h-162zM151 -144v95h276v-95h-276z" />
    <glyph glyph-name="U" unicode="U" horiz-adv-x="726" 
d="M147 45q-76 66 -76 204v418h169v-411q0 -77 31 -114t99 -37q63 0 97 38t34 113v411h154v-418q0 -135 -74.5 -202.5t-202.5 -67.5q-155 0 -231 66z" />
    <glyph glyph-name="Uacute" unicode="&#xda;" horiz-adv-x="726" 
d="M147 45q-76 66 -76 204v418h169v-411q0 -77 31 -114t99 -37q63 0 97 38t34 113v411h154v-418q0 -135 -74.5 -202.5t-202.5 -67.5q-155 0 -231 66zM324 726l36 113h156l-118 -113h-74z" />
    <glyph glyph-name="Ubreve" unicode="&#x16c;" horiz-adv-x="726" 
d="M147 45q-76 66 -76 204v418h169v-411q0 -77 31 -114t99 -37q63 0 97 38t34 113v411h154v-418q0 -135 -74.5 -202.5t-202.5 -67.5q-155 0 -231 66zM212 841h83q8 -24 25 -41t43 -17q46 0 67 58h84q-7 -61 -44.5 -97t-106.5 -36q-127 0 -151 133z" />
    <glyph glyph-name="uni01D3" unicode="&#x1d3;" horiz-adv-x="726" 
d="M147 45q-76 66 -76 204v418h169v-411q0 -77 31 -114t99 -37q63 0 97 38t34 113v411h154v-418q0 -135 -74.5 -202.5t-202.5 -67.5q-155 0 -231 66zM302 707l-81 121h95l43 -58l43 58h95l-73 -121h-122z" />
    <glyph glyph-name="Ucircumflex" unicode="&#xdb;" horiz-adv-x="726" 
d="M147 45q-76 66 -76 204v418h169v-411q0 -77 31 -114t99 -37q63 0 97 38t34 113v411h154v-418q0 -135 -74.5 -202.5t-202.5 -67.5q-155 0 -231 66zM215 716l88 121h121l87 -121h-99l-49 59l-49 -59h-99z" />
    <glyph glyph-name="uni0214" unicode="&#x214;" horiz-adv-x="726" 
d="M147 45q-76 66 -76 204v418h169v-411q0 -77 31 -114t99 -37q63 0 97 38t34 113v411h154v-418q0 -135 -74.5 -202.5t-202.5 -67.5q-155 0 -231 66zM248 727l-97 111h132l47 -111h-82zM419 727l-97 111h132l47 -111h-82z" />
    <glyph glyph-name="Udieresis" unicode="&#xdc;" horiz-adv-x="726" 
d="M147 45q-76 66 -76 204v418h169v-411q0 -77 31 -114t99 -37q63 0 97 38t34 113v411h154v-418q0 -135 -74.5 -202.5t-202.5 -67.5q-155 0 -231 66zM204 710v100h128v-100h-128zM387 710v100h129v-100h-129z" />
    <glyph glyph-name="uni1EE4" unicode="&#x1ee4;" horiz-adv-x="726" 
d="M147 45q-76 66 -76 204v418h169v-411q0 -77 31 -114t99 -37q63 0 97 38t34 113v411h154v-418q0 -135 -74.5 -202.5t-202.5 -67.5q-155 0 -231 66zM309 -150v100h108v-100h-108z" />
    <glyph glyph-name="Ugrave" unicode="&#xd9;" horiz-adv-x="726" 
d="M147 45q-76 66 -76 204v418h169v-411q0 -77 31 -114t99 -37q63 0 97 38t34 113v411h154v-418q0 -135 -74.5 -202.5t-202.5 -67.5q-155 0 -231 66zM327 723l-97 111h132l47 -111h-82z" />
    <glyph glyph-name="uni1EE6" unicode="&#x1ee6;" horiz-adv-x="726" 
d="M147 45q-76 66 -76 204v418h169v-411q0 -77 31 -114t99 -37q63 0 97 38t34 113v411h154v-418q0 -135 -74.5 -202.5t-202.5 -67.5q-155 0 -231 66zM314 768q17 1 27 8t10 16q0 24 -42 24q-13 0 -30 -3v58q22 5 58 5q50 0 81 -19t31 -59q0 -28 -15 -45t-42 -18v-24h-78v57z
" />
    <glyph glyph-name="Uhorn" unicode="&#x1af;" horiz-adv-x="814" 
d="M760 751v-56q0 -83 -105 -105v-341q0 -135 -74.5 -202.5t-202.5 -67.5q-155 0 -231 66t-76 204v418h169v-411q0 -77 31 -114t99 -37q63 0 97 38t34 113v411h111q26 3 41.5 15t15.5 32v37h91z" />
    <glyph glyph-name="uni1EE8" unicode="&#x1ee8;" horiz-adv-x="814" 
d="M760 751v-56q0 -83 -105 -105v-341q0 -135 -74.5 -202.5t-202.5 -67.5q-155 0 -231 66t-76 204v418h169v-411q0 -77 31 -114t99 -37q63 0 97 38t34 113v411h111q26 3 41.5 15t15.5 32v37h91zM324 726l36 113h156l-118 -113h-74z" />
    <glyph glyph-name="uni1EF0" unicode="&#x1ef0;" horiz-adv-x="814" 
d="M760 751v-56q0 -83 -105 -105v-341q0 -135 -74.5 -202.5t-202.5 -67.5q-155 0 -231 66t-76 204v418h169v-411q0 -77 31 -114t99 -37q63 0 97 38t34 113v411h111q26 3 41.5 15t15.5 32v37h91zM309 -150v100h108v-100h-108z" />
    <glyph glyph-name="uni1EEA" unicode="&#x1eea;" horiz-adv-x="814" 
d="M760 751v-56q0 -83 -105 -105v-341q0 -135 -74.5 -202.5t-202.5 -67.5q-155 0 -231 66t-76 204v418h169v-411q0 -77 31 -114t99 -37q63 0 97 38t34 113v411h111q26 3 41.5 15t15.5 32v37h91zM327 723l-97 111h132l47 -111h-82z" />
    <glyph glyph-name="uni1EEC" unicode="&#x1eec;" horiz-adv-x="814" 
d="M760 751v-56q0 -83 -105 -105v-341q0 -135 -74.5 -202.5t-202.5 -67.5q-155 0 -231 66t-76 204v418h169v-411q0 -77 31 -114t99 -37q63 0 97 38t34 113v411h111q26 3 41.5 15t15.5 32v37h91zM314 768q17 1 27 8t10 16q0 24 -42 24q-13 0 -30 -3v58q22 5 58 5q50 0 81 -19
t31 -59q0 -28 -15 -45t-42 -18v-24h-78v57z" />
    <glyph glyph-name="uni1EEE" unicode="&#x1eee;" horiz-adv-x="814" 
d="M760 751v-56q0 -83 -105 -105v-341q0 -135 -74.5 -202.5t-202.5 -67.5q-155 0 -231 66t-76 204v418h169v-411q0 -77 31 -114t99 -37q63 0 97 38t34 113v411h111q26 3 41.5 15t15.5 32v37h91zM186 727q-2 38 12 70t40.5 51t60.5 19q25 0 45.5 -9.5t46.5 -27.5
q19 -14 32.5 -20.5t27.5 -6.5q37 0 33 59h73q2 -63 -30.5 -100.5t-81.5 -37.5q-34 0 -56.5 11t-48.5 30q-18 13 -27 18t-20 5q-20 0 -30 -18t-8 -43h-69z" />
    <glyph glyph-name="Uhungarumlaut" unicode="&#x170;" horiz-adv-x="726" 
d="M147 45q-76 66 -76 204v418h169v-411q0 -77 31 -114t99 -37q63 0 97 38t34 113v411h154v-418q0 -135 -74.5 -202.5t-202.5 -67.5q-155 0 -231 66zM250 725l61 117h104l-90 -117h-75zM392 725l60 117h104l-90 -117h-74z" />
    <glyph glyph-name="uni0216" unicode="&#x216;" horiz-adv-x="726" 
d="M147 45q-76 66 -76 204v418h169v-411q0 -77 31 -114t99 -37q63 0 97 38t34 113v411h154v-418q0 -135 -74.5 -202.5t-202.5 -67.5q-155 0 -231 66zM469.5 803q37.5 -36 44.5 -97h-84q-21 58 -67 58q-26 0 -43 -17t-25 -41h-83q24 133 151 133q69 0 106.5 -36z" />
    <glyph glyph-name="Umacron" unicode="&#x16a;" horiz-adv-x="726" 
d="M147 45q-76 66 -76 204v418h169v-411q0 -77 31 -114t99 -37q63 0 97 38t34 113v411h154v-418q0 -135 -74.5 -202.5t-202.5 -67.5q-155 0 -231 66zM221 719v95h276v-95h-276z" />
    <glyph glyph-name="uni1E7A" unicode="&#x1e7a;" horiz-adv-x="726" 
d="M147 45q-76 66 -76 204v418h169v-411q0 -77 31 -114t99 -37q63 0 97 38t34 113v411h154v-418q0 -135 -74.5 -202.5t-202.5 -67.5q-155 0 -231 66zM221 719v95h276v-95h-276zM204 843v100h128v-100h-128zM387 843v100h129v-100h-129z" />
    <glyph glyph-name="Uogonek" unicode="&#x172;" horiz-adv-x="726" 
d="M655 667v-418q0 -100 -42 -163.5t-119 -89.5q-40 -17 -64 -35.5t-24 -37.5q0 -20 9 -28t26 -8q29 0 65 34v-85q-19 -11 -39.5 -17.5t-51.5 -6.5q-65 0 -96 24t-31 72q0 40 41 73q-130 10 -194 75.5t-64 192.5v418h169v-411q0 -77 31 -114t99 -37q63 0 97 38t34 113v411
h154z" />
    <glyph glyph-name="Uring" unicode="&#x16e;" horiz-adv-x="726" 
d="M147 45q-76 66 -76 204v418h169v-411q0 -77 31 -114t99 -37q63 0 97 38t34 113v411h154v-418q0 -135 -74.5 -202.5t-202.5 -67.5q-155 0 -231 66zM273.5 696.5q-30.5 24.5 -30.5 70.5t30.5 70.5t88.5 24.5t88.5 -24.5t30.5 -70.5q0 -47 -30.5 -71t-88.5 -24t-88.5 24.5z
M399 738.5q11 8.5 11 28.5t-11 28t-37 8t-37 -8t-11 -28t11 -28.5t37 -8.5t37 8.5z" />
    <glyph glyph-name="Utilde" unicode="&#x168;" horiz-adv-x="726" 
d="M147 45q-76 66 -76 204v418h169v-411q0 -77 31 -114t99 -37q63 0 97 38t34 113v411h154v-418q0 -135 -74.5 -202.5t-202.5 -67.5q-155 0 -231 66zM186 727q-2 38 12 70t40.5 51t60.5 19q25 0 45.5 -9.5t46.5 -27.5q19 -14 32.5 -20.5t27.5 -6.5q37 0 33 59h73
q2 -63 -30.5 -100.5t-81.5 -37.5q-34 0 -56.5 11t-48.5 30q-18 13 -27 18t-20 5q-20 0 -30 -18t-8 -43h-69z" />
    <glyph glyph-name="uni1E78" unicode="&#x1e78;" horiz-adv-x="726" 
d="M147 45q-76 66 -76 204v418h169v-411q0 -77 31 -114t99 -37q63 0 97 38t34 113v411h154v-418q0 -135 -74.5 -202.5t-202.5 -67.5q-155 0 -231 66zM186 727q-2 38 12 70t40.5 51t60.5 19q25 0 45.5 -9.5t46.5 -27.5q19 -14 32.5 -20.5t27.5 -6.5q37 0 33 59h73
q2 -63 -30.5 -100.5t-81.5 -37.5q-34 0 -56.5 11t-48.5 30q-18 13 -27 18t-20 5q-20 0 -30 -18t-8 -43h-69zM324 928l36 113h156l-118 -113h-74z" />
    <glyph glyph-name="V" unicode="V" horiz-adv-x="709" 
d="M524 666l172 1l-261 -667h-173l-249 667h187l162 -487z" />
    <glyph glyph-name="W" unicode="W" horiz-adv-x="1010" 
d="M808 667h177l-187 -667h-160l-133 433l-133 -433h-160l-187 667h177l105 -466l135 466h125l136 -467z" />
    <glyph glyph-name="Wacute" unicode="&#x1e82;" horiz-adv-x="1010" 
d="M808 667h177l-187 -667h-160l-133 433l-133 -433h-160l-187 667h177l105 -466l135 466h125l136 -467zM466 719l36 113h156l-118 -113h-74z" />
    <glyph glyph-name="Wcircumflex" unicode="&#x174;" horiz-adv-x="1010" 
d="M808 667h177l-187 -667h-160l-133 433l-133 -433h-160l-187 667h177l105 -466l135 466h125l136 -467zM357 709l88 121h121l87 -121h-99l-49 59l-49 -59h-99z" />
    <glyph glyph-name="Wdieresis" unicode="&#x1e84;" horiz-adv-x="1010" 
d="M808 667h177l-187 -667h-160l-133 433l-133 -433h-160l-187 667h177l105 -466l135 466h125l136 -467zM346 703v100h128v-100h-128zM529 703v100h129v-100h-129z" />
    <glyph glyph-name="Wgrave" unicode="&#x1e80;" horiz-adv-x="1010" 
d="M808 667h177l-187 -667h-160l-133 433l-133 -433h-160l-187 667h177l105 -466l135 466h125l136 -467zM469 716l-97 111h132l47 -111h-82z" />
    <glyph glyph-name="X" unicode="X" horiz-adv-x="679" 
d="M668 0h-201l-144 211l-128 -211h-175l221 332l-229 335h201l145 -212l124 212h179l-219 -335z" />
    <glyph glyph-name="Y" unicode="Y" horiz-adv-x="692" 
d="M669 667l-233 -381v-286h-162v289l-253 378h199l151 -253l137 253h161z" />
    <glyph glyph-name="Yacute" unicode="&#xdd;" horiz-adv-x="692" 
d="M669 667l-233 -381v-286h-162v289l-253 378h199l151 -253l137 253h161zM332 719l36 113h156l-118 -113h-74z" />
    <glyph glyph-name="Ycircumflex" unicode="&#x176;" horiz-adv-x="692" 
d="M669 667l-233 -381v-286h-162v289l-253 378h199l151 -253l137 253h161zM223 709l88 121h121l87 -121h-99l-49 59l-49 -59h-99z" />
    <glyph glyph-name="Ydieresis" unicode="&#x178;" horiz-adv-x="692" 
d="M669 667l-233 -381v-286h-162v289l-253 378h199l151 -253l137 253h161zM212 703v100h128v-100h-128zM395 703v100h129v-100h-129z" />
    <glyph glyph-name="uni1E8E" unicode="&#x1e8e;" horiz-adv-x="692" 
d="M669 667l-233 -381v-286h-162v289l-253 378h199l151 -253l137 253h161zM301 697v100h121v-100h-121z" />
    <glyph glyph-name="uni1EF4" unicode="&#x1ef4;" horiz-adv-x="692" 
d="M669 667l-233 -381v-286h-162v289l-253 378h199l151 -253l137 253h161zM292 -150v100h108v-100h-108z" />
    <glyph glyph-name="Ygrave" unicode="&#x1ef2;" horiz-adv-x="692" 
d="M669 667l-233 -381v-286h-162v289l-253 378h199l151 -253l137 253h161zM335 716l-97 111h132l47 -111h-82z" />
    <glyph glyph-name="uni1EF6" unicode="&#x1ef6;" horiz-adv-x="692" 
d="M669 667l-233 -381v-286h-162v289l-253 378h199l151 -253l137 253h161zM322 761q17 1 27 8t10 16q0 24 -42 24q-13 0 -30 -3v58q22 5 58 5q50 0 81 -19t31 -59q0 -28 -15 -45t-42 -18v-24h-78v57z" />
    <glyph glyph-name="uni0232" unicode="&#x232;" horiz-adv-x="692" 
d="M669 667l-233 -381v-286h-162v289l-253 378h199l151 -253l137 253h161zM229 712v95h276v-95h-276z" />
    <glyph glyph-name="uni1EF8" unicode="&#x1ef8;" horiz-adv-x="692" 
d="M669 667l-233 -381v-286h-162v289l-253 378h199l151 -253l137 253h161zM194 720q-2 38 12 70t40.5 51t60.5 19q25 0 45.5 -9.5t46.5 -27.5q19 -14 32.5 -20.5t27.5 -6.5q37 0 33 59h73q2 -63 -30.5 -100.5t-81.5 -37.5q-34 0 -56.5 11t-48.5 30q-18 13 -27 18t-20 5
q-20 0 -30 -18t-8 -43h-69z" />
    <glyph glyph-name="Z" unicode="Z" horiz-adv-x="634" 
d="M578 667v-116l-320 -425h320v-126h-524v118l328 422h-323v127h519z" />
    <glyph glyph-name="Zacute" unicode="&#x179;" horiz-adv-x="634" 
d="M578 667v-116l-320 -425h320v-126h-524v118l328 422h-323v127h519zM285 719l36 113h156l-118 -113h-74z" />
    <glyph glyph-name="Zcaron" unicode="&#x17d;" horiz-adv-x="634" 
d="M578 667v-116l-320 -425h320v-126h-524v118l328 422h-323v127h519zM263 700l-81 121h95l43 -58l43 58h95l-73 -121h-122z" />
    <glyph glyph-name="Zdotaccent" unicode="&#x17b;" horiz-adv-x="634" 
d="M578 667v-116l-320 -425h320v-126h-524v118l328 422h-323v127h519zM254 697v100h121v-100h-121z" />
    <glyph glyph-name="a" unicode="a" horiz-adv-x="572" 
d="M438 482.5q68 -38.5 68 -138.5l-1 -239q-1 -63 -63 -91.5t-181 -28.5q-222 0 -222 173q0 73 45.5 114t135.5 41q37 0 74 -9.5t64 -24.5v32q0 87 -112 87q-43 0 -88.5 -15.5t-72.5 -37.5v132q27 18 82.5 31t119.5 13q83 0 151 -38.5zM338 97q20 7 20 28v78q-35 12 -77 12
q-49 0 -71.5 -14.5t-22.5 -45.5q0 -29 23.5 -47t55.5 -18q52 0 72 7z" />
    <glyph glyph-name="aacute" unicode="&#xe1;" horiz-adv-x="572" 
d="M438 482.5q68 -38.5 68 -138.5l-1 -239q-1 -63 -63 -91.5t-181 -28.5q-222 0 -222 173q0 73 45.5 114t135.5 41q37 0 74 -9.5t64 -24.5v32q0 87 -112 87q-43 0 -88.5 -15.5t-72.5 -37.5v132q27 18 82.5 31t119.5 13q83 0 151 -38.5zM338 97q20 7 20 28v78q-35 12 -77 12
q-49 0 -71.5 -14.5t-22.5 -45.5q0 -29 23.5 -47t55.5 -18q52 0 72 7zM237 572l47 124h146l-111 -124h-82z" />
    <glyph glyph-name="abreve" unicode="&#x103;" horiz-adv-x="572" 
d="M438 482.5q68 -38.5 68 -138.5l-1 -239q-1 -63 -63 -91.5t-181 -28.5q-222 0 -222 173q0 73 45.5 114t135.5 41q37 0 74 -9.5t64 -24.5v32q0 87 -112 87q-43 0 -88.5 -15.5t-72.5 -37.5v132q27 18 82.5 31t119.5 13q83 0 151 -38.5zM338 97q20 7 20 28v78q-35 12 -77 12
q-49 0 -71.5 -14.5t-22.5 -45.5q0 -29 23.5 -47t55.5 -18q52 0 72 7zM133 692h83q8 -24 25 -41t43 -17q46 0 67 58h84q-7 -61 -44.5 -97t-106.5 -36q-127 0 -151 133z" />
    <glyph glyph-name="uni1EAF" unicode="&#x1eaf;" horiz-adv-x="572" 
d="M438 482.5q68 -38.5 68 -138.5l-1 -239q-1 -63 -63 -91.5t-181 -28.5q-222 0 -222 173q0 73 45.5 114t135.5 41q37 0 74 -9.5t64 -24.5v32q0 87 -112 87q-43 0 -88.5 -15.5t-72.5 -37.5v132q27 18 82.5 31t119.5 13q83 0 151 -38.5zM338 97q20 7 20 28v78q-35 12 -77 12
q-49 0 -71.5 -14.5t-22.5 -45.5q0 -29 23.5 -47t55.5 -18q52 0 72 7zM133 692h83q8 -24 25 -41t43 -17q46 0 67 58h84q-7 -61 -44.5 -97t-106.5 -36q-127 0 -151 133zM241 719l36 113h156l-118 -113h-74z" />
    <glyph glyph-name="uni1EB7" unicode="&#x1eb7;" horiz-adv-x="546" 
d="M186 566q-31 28 -31 78h78q2 -21 12 -31.5t33 -10.5q24 0 34 10.5t12 31.5h78q0 -50 -31.5 -78t-92.5 -28t-92 28zM438 482.5q68 -38.5 68 -138.5l-1 -239q-1 -63 -63 -91.5t-181 -28.5q-222 0 -222 173q0 73 45.5 114t135.5 41q37 0 74 -9.5t64 -24.5v32q0 87 -112 87
q-43 0 -88.5 -15.5t-72.5 -37.5v132q27 18 82.5 31t119.5 13q83 0 151 -38.5zM338 97q20 7 20 28v78q-35 12 -77 12q-49 0 -71.5 -14.5t-22.5 -45.5q0 -29 23.5 -47t55.5 -18q52 0 72 7zM227 -150v100h108v-100h-108z" />
    <glyph glyph-name="uni1EB1" unicode="&#x1eb1;" horiz-adv-x="572" 
d="M438 482.5q68 -38.5 68 -138.5l-1 -239q-1 -63 -63 -91.5t-181 -28.5q-222 0 -222 173q0 73 45.5 114t135.5 41q37 0 74 -9.5t64 -24.5v32q0 87 -112 87q-43 0 -88.5 -15.5t-72.5 -37.5v132q27 18 82.5 31t119.5 13q83 0 151 -38.5zM338 97q20 7 20 28v78q-35 12 -77 12
q-49 0 -71.5 -14.5t-22.5 -45.5q0 -29 23.5 -47t55.5 -18q52 0 72 7zM133 692h83q8 -24 25 -41t43 -17q46 0 67 58h84q-7 -61 -44.5 -97t-106.5 -36q-127 0 -151 133zM245 708l-111 124h146l46 -124h-81z" />
    <glyph glyph-name="uni1EB3" unicode="&#x1eb3;" horiz-adv-x="572" 
d="M438 482.5q68 -38.5 68 -138.5l-1 -239q-1 -63 -63 -91.5t-181 -28.5q-222 0 -222 173q0 73 45.5 114t135.5 41q37 0 74 -9.5t64 -24.5v32q0 87 -112 87q-43 0 -88.5 -15.5t-72.5 -37.5v132q27 18 82.5 31t119.5 13q83 0 151 -38.5zM338 97q20 7 20 28v78q-35 12 -77 12
q-49 0 -71.5 -14.5t-22.5 -45.5q0 -29 23.5 -47t55.5 -18q52 0 72 7zM129 692h83q8 -24 25 -41t43 -17q46 0 67 58h84q-7 -61 -44.5 -97t-106.5 -36q-127 0 -151 133zM246 765q17 1 27 8t10 16q0 24 -42 24q-13 0 -30 -3v58q22 5 58 5q50 0 81 -19t31 -59q0 -28 -15 -45
t-42 -18v-24h-78v57z" />
    <glyph glyph-name="uni1EB5" unicode="&#x1eb5;" horiz-adv-x="572" 
d="M438 482.5q68 -38.5 68 -138.5l-1 -239q-1 -63 -63 -91.5t-181 -28.5q-222 0 -222 173q0 73 45.5 114t135.5 41q37 0 74 -9.5t64 -24.5v32q0 87 -112 87q-43 0 -88.5 -15.5t-72.5 -37.5v132q27 18 82.5 31t119.5 13q83 0 151 -38.5zM338 97q20 7 20 28v78q-35 12 -77 12
q-49 0 -71.5 -14.5t-22.5 -45.5q0 -29 23.5 -47t55.5 -18q52 0 72 7zM133 692h83q8 -24 25 -41t43 -17q46 0 67 58h84q-7 -61 -44.5 -97t-106.5 -36q-127 0 -151 133zM106 726q-2 38 12 70t40.5 51t60.5 19q25 0 45.5 -9.5t46.5 -27.5q19 -14 32.5 -20.5t27.5 -6.5
q37 0 33 59h73q2 -63 -30.5 -100.5t-81.5 -37.5q-34 0 -56.5 11t-48.5 30q-18 13 -27 18t-20 5q-20 0 -30 -18t-8 -43h-69z" />
    <glyph glyph-name="uni01CE" unicode="&#x1ce;" horiz-adv-x="572" 
d="M438 482.5q68 -38.5 68 -138.5l-1 -239q-1 -63 -63 -91.5t-181 -28.5q-222 0 -222 173q0 73 45.5 114t135.5 41q37 0 74 -9.5t64 -24.5v32q0 87 -112 87q-43 0 -88.5 -15.5t-72.5 -37.5v132q27 18 82.5 31t119.5 13q83 0 151 -38.5zM338 97q20 7 20 28v78q-35 12 -77 12
q-49 0 -71.5 -14.5t-22.5 -45.5q0 -29 23.5 -47t55.5 -18q52 0 72 7zM223 585l-81 121h95l43 -58l43 58h95l-73 -121h-122z" />
    <glyph glyph-name="acircumflex" unicode="&#xe2;" horiz-adv-x="572" 
d="M438 482.5q68 -38.5 68 -138.5l-1 -239q-1 -63 -63 -91.5t-181 -28.5q-222 0 -222 173q0 73 45.5 114t135.5 41q37 0 74 -9.5t64 -24.5v32q0 87 -112 87q-43 0 -88.5 -15.5t-72.5 -37.5v132q27 18 82.5 31t119.5 13q83 0 151 -38.5zM338 97q20 7 20 28v78q-35 12 -77 12
q-49 0 -71.5 -14.5t-22.5 -45.5q0 -29 23.5 -47t55.5 -18q52 0 72 7zM143 578l88 121h121l87 -121h-99l-49 59l-49 -59h-99z" />
    <glyph glyph-name="uni1EA5" unicode="&#x1ea5;" horiz-adv-x="572" 
d="M438 482.5q68 -38.5 68 -138.5l-1 -239q-1 -63 -63 -91.5t-181 -28.5q-222 0 -222 173q0 73 45.5 114t135.5 41q37 0 74 -9.5t64 -24.5v32q0 87 -112 87q-43 0 -88.5 -15.5t-72.5 -37.5v132q27 18 82.5 31t119.5 13q83 0 151 -38.5zM338 97q20 7 20 28v78q-35 12 -77 12
q-49 0 -71.5 -14.5t-22.5 -45.5q0 -29 23.5 -47t55.5 -18q52 0 72 7zM137 564l88 121h121l87 -121h-99l-49 59l-49 -59h-99zM404 637l36 113h156l-118 -113h-74z" />
    <glyph glyph-name="uni1EAD" unicode="&#x1ead;" horiz-adv-x="546" 
d="M438 482.5q68 -38.5 68 -138.5l-1 -239q-1 -63 -63 -91.5t-181 -28.5q-222 0 -222 173q0 73 45.5 114t135.5 41q37 0 74 -9.5t64 -24.5v32q0 87 -112 87q-43 0 -88.5 -15.5t-72.5 -37.5v132q27 18 82.5 31t119.5 13q83 0 151 -38.5zM338 97q20 7 20 28v78q-35 12 -77 12
q-49 0 -71.5 -14.5t-22.5 -45.5q0 -29 23.5 -47t55.5 -18q52 0 72 7zM228 -150v100h108v-100h-108zM143 578l88 121h121l87 -121h-99l-49 59l-49 -59h-99z" />
    <glyph glyph-name="uni1EA7" unicode="&#x1ea7;" horiz-adv-x="572" 
d="M438 482.5q68 -38.5 68 -138.5l-1 -239q-1 -63 -63 -91.5t-181 -28.5q-222 0 -222 173q0 73 45.5 114t135.5 41q37 0 74 -9.5t64 -24.5v32q0 87 -112 87q-43 0 -88.5 -15.5t-72.5 -37.5v132q27 18 82.5 31t119.5 13q83 0 151 -38.5zM338 97q20 7 20 28v78q-35 12 -77 12
q-49 0 -71.5 -14.5t-22.5 -45.5q0 -29 23.5 -47t55.5 -18q52 0 72 7zM143 564l88 121h121l87 -121h-99l-49 59l-49 -59h-99zM75 636l-97 111h132l47 -111h-82z" />
    <glyph glyph-name="uni1EA9" unicode="&#x1ea9;" horiz-adv-x="572" 
d="M438 482.5q68 -38.5 68 -138.5l-1 -239q-1 -63 -63 -91.5t-181 -28.5q-222 0 -222 173q0 73 45.5 114t135.5 41q37 0 74 -9.5t64 -24.5v32q0 87 -112 87q-43 0 -88.5 -15.5t-72.5 -37.5v132q27 18 82.5 31t119.5 13q83 0 151 -38.5zM338 97q20 7 20 28v78q-35 12 -77 12
q-49 0 -71.5 -14.5t-22.5 -45.5q0 -29 23.5 -47t55.5 -18q52 0 72 7zM127 568l88 121h121l87 -121h-99l-49 59l-49 -59h-99zM403 687q17 1 27 8t10 16q0 24 -42 24q-13 0 -30 -3v58q22 5 58 5q50 0 81 -19t31 -59q0 -28 -15 -45t-42 -18v-24h-78v57z" />
    <glyph glyph-name="uni1EAB" unicode="&#x1eab;" horiz-adv-x="572" 
d="M438 482.5q68 -38.5 68 -138.5l-1 -239q-1 -63 -63 -91.5t-181 -28.5q-222 0 -222 173q0 73 45.5 114t135.5 41q37 0 74 -9.5t64 -24.5v32q0 87 -112 87q-43 0 -88.5 -15.5t-72.5 -37.5v132q27 18 82.5 31t119.5 13q83 0 151 -38.5zM338 97q20 7 20 28v78q-35 12 -77 12
q-49 0 -71.5 -14.5t-22.5 -45.5q0 -29 23.5 -47t55.5 -18q52 0 72 7zM142 552l88 121h121l87 -121h-99l-49 59l-49 -59h-99zM105 716q-2 38 12 70t40.5 51t60.5 19q25 0 45.5 -9.5t46.5 -27.5q19 -14 32.5 -20.5t27.5 -6.5q37 0 33 59h73q2 -63 -30.5 -100.5t-81.5 -37.5
q-34 0 -56.5 11t-48.5 30q-18 13 -27 18t-20 5q-20 0 -30 -18t-8 -43h-69z" />
    <glyph glyph-name="uni0201" unicode="&#x201;" horiz-adv-x="572" 
d="M438 482.5q68 -38.5 68 -138.5l-1 -239q-1 -63 -63 -91.5t-181 -28.5q-222 0 -222 173q0 73 45.5 114t135.5 41q37 0 74 -9.5t64 -24.5v32q0 87 -112 87q-43 0 -88.5 -15.5t-72.5 -37.5v132q27 18 82.5 31t119.5 13q83 0 151 -38.5zM338 97q20 7 20 28v78q-35 12 -77 12
q-49 0 -71.5 -14.5t-22.5 -45.5q0 -29 23.5 -47t55.5 -18q52 0 72 7zM174 572l-111 124h146l46 -124h-81zM358 572l-111 124h146l46 -124h-81z" />
    <glyph glyph-name="adieresis" unicode="&#xe4;" horiz-adv-x="572" 
d="M438 482.5q68 -38.5 68 -138.5l-1 -239q-1 -63 -63 -91.5t-181 -28.5q-222 0 -222 173q0 73 45.5 114t135.5 41q37 0 74 -9.5t64 -24.5v32q0 87 -112 87q-43 0 -88.5 -15.5t-72.5 -37.5v132q27 18 82.5 31t119.5 13q83 0 151 -38.5zM338 97q20 7 20 28v78q-35 12 -77 12
q-49 0 -71.5 -14.5t-22.5 -45.5q0 -29 23.5 -47t55.5 -18q52 0 72 7zM135 579v100h128v-100h-128zM318 579v100h129v-100h-129z" />
    <glyph glyph-name="uni1EA1" unicode="&#x1ea1;" horiz-adv-x="546" 
d="M438 482.5q68 -38.5 68 -138.5l-1 -239q-1 -63 -63 -91.5t-181 -28.5q-222 0 -222 173q0 73 45.5 114t135.5 41q37 0 74 -9.5t64 -24.5v32q0 87 -112 87q-43 0 -88.5 -15.5t-72.5 -37.5v132q27 18 82.5 31t119.5 13q83 0 151 -38.5zM338 97q20 7 20 28v78q-35 12 -77 12
q-49 0 -71.5 -14.5t-22.5 -45.5q0 -29 23.5 -47t55.5 -18q52 0 72 7zM228 -150v100h108v-100h-108z" />
    <glyph glyph-name="agrave" unicode="&#xe0;" horiz-adv-x="572" 
d="M438 482.5q68 -38.5 68 -138.5l-1 -239q-1 -63 -63 -91.5t-181 -28.5q-222 0 -222 173q0 73 45.5 114t135.5 41q37 0 74 -9.5t64 -24.5v32q0 87 -112 87q-43 0 -88.5 -15.5t-72.5 -37.5v132q27 18 82.5 31t119.5 13q83 0 151 -38.5zM338 97q20 7 20 28v78q-35 12 -77 12
q-49 0 -71.5 -14.5t-22.5 -45.5q0 -29 23.5 -47t55.5 -18q52 0 72 7zM246 572l-111 124h146l46 -124h-81z" />
    <glyph glyph-name="uni1EA3" unicode="&#x1ea3;" horiz-adv-x="572" 
d="M438 482.5q68 -38.5 68 -138.5l-1 -239q-1 -63 -63 -91.5t-181 -28.5q-222 0 -222 173q0 73 45.5 114t135.5 41q37 0 74 -9.5t64 -24.5v32q0 87 -112 87q-43 0 -88.5 -15.5t-72.5 -37.5v132q27 18 82.5 31t119.5 13q83 0 151 -38.5zM338 97q20 7 20 28v78q-35 12 -77 12
q-49 0 -71.5 -14.5t-22.5 -45.5q0 -29 23.5 -47t55.5 -18q52 0 72 7zM251 620q17 1 27 8t10 16q0 24 -42 24q-13 0 -30 -3v58q22 5 58 5q50 0 81 -19t31 -59q0 -28 -15 -45t-42 -18v-24h-78v57z" />
    <glyph glyph-name="uni0203" unicode="&#x203;" horiz-adv-x="572" 
d="M438 482.5q68 -38.5 68 -138.5l-1 -239q-1 -63 -63 -91.5t-181 -28.5q-222 0 -222 173q0 73 45.5 114t135.5 41q37 0 74 -9.5t64 -24.5v32q0 87 -112 87q-43 0 -88.5 -15.5t-72.5 -37.5v132q27 18 82.5 31t119.5 13q83 0 151 -38.5zM338 97q20 7 20 28v78q-35 12 -77 12
q-49 0 -71.5 -14.5t-22.5 -45.5q0 -29 23.5 -47t55.5 -18q52 0 72 7zM390.5 643q37.5 -36 44.5 -97h-84q-21 58 -67 58q-26 0 -43 -17t-25 -41h-83q24 133 151 133q69 0 106.5 -36z" />
    <glyph glyph-name="amacron" unicode="&#x101;" horiz-adv-x="572" 
d="M438 482.5q68 -38.5 68 -138.5l-1 -239q-1 -63 -63 -91.5t-181 -28.5q-222 0 -222 173q0 73 45.5 114t135.5 41q37 0 74 -9.5t64 -24.5v32q0 87 -112 87q-43 0 -88.5 -15.5t-72.5 -37.5v132q27 18 82.5 31t119.5 13q83 0 151 -38.5zM338 97q20 7 20 28v78q-35 12 -77 12
q-49 0 -71.5 -14.5t-22.5 -45.5q0 -29 23.5 -47t55.5 -18q52 0 72 7zM142 573v95h276v-95h-276z" />
    <glyph glyph-name="aogonek" unicode="&#x105;" horiz-adv-x="572" 
d="M438 482.5q68 -38.5 68 -138.5l-1 -239q-1 -73 -86 -101q-62 -32 -62 -61q0 -20 9 -28t26 -8q29 0 65 34v-85q-19 -11 -39.5 -17.5t-51.5 -6.5q-65 0 -96 24t-31 72q0 30 24 57h-2q-222 0 -222 173q0 73 45.5 114t135.5 41q37 0 74 -9.5t64 -24.5v32q0 87 -112 87
q-43 0 -88.5 -15.5t-72.5 -37.5v132q27 18 82.5 31t119.5 13q83 0 151 -38.5zM210.5 108q23.5 -18 55.5 -18q52 0 72 7t20 28v78q-35 12 -77 12q-49 0 -71.5 -14.5t-22.5 -45.5q0 -29 23.5 -47z" />
    <glyph glyph-name="aring" unicode="&#xe5;" horiz-adv-x="572" 
d="M438 482.5q68 -38.5 68 -138.5l-1 -239q-1 -63 -63 -91.5t-181 -28.5q-222 0 -222 173q0 73 45.5 114t135.5 41q37 0 74 -9.5t64 -24.5v32q0 87 -112 87q-43 0 -88.5 -15.5t-72.5 -37.5v132q27 18 82.5 31t119.5 13q83 0 151 -38.5zM338 97q20 7 20 28v78q-35 12 -77 12
q-49 0 -71.5 -14.5t-22.5 -45.5q0 -29 23.5 -47t55.5 -18q52 0 72 7zM195.5 580.5q-30.5 24.5 -30.5 70.5t30.5 70.5t88.5 24.5t88.5 -24.5t30.5 -70.5q0 -47 -30.5 -71t-88.5 -24t-88.5 24.5zM321 622.5q11 8.5 11 28.5t-11 28t-37 8t-37 -8t-11 -28t11 -28.5t37 -8.5
t37 8.5z" />
    <glyph glyph-name="aringacute" unicode="&#x1fb;" horiz-adv-x="572" 
d="M438 482.5q68 -38.5 68 -138.5l-1 -239q-1 -63 -63 -91.5t-181 -28.5q-222 0 -222 173q0 73 45.5 114t135.5 41q37 0 74 -9.5t64 -24.5v32q0 87 -112 87q-43 0 -88.5 -15.5t-72.5 -37.5v132q27 18 82.5 31t119.5 13q83 0 151 -38.5zM338 97q20 7 20 28v78q-35 12 -77 12
q-49 0 -71.5 -14.5t-22.5 -45.5q0 -29 23.5 -47t55.5 -18q52 0 72 7zM195.5 580.5q-30.5 24.5 -30.5 70.5t30.5 70.5t88.5 24.5t88.5 -24.5t30.5 -70.5q0 -47 -30.5 -71t-88.5 -24t-88.5 24.5zM321 622.5q11 8.5 11 28.5t-11 28t-37 8t-37 -8t-11 -28t11 -28.5t37 -8.5
t37 8.5zM237 781l47 124h146l-111 -124h-82z" />
    <glyph glyph-name="atilde" unicode="&#xe3;" horiz-adv-x="572" 
d="M438 482.5q68 -38.5 68 -138.5l-1 -239q-1 -63 -63 -91.5t-181 -28.5q-222 0 -222 173q0 73 45.5 114t135.5 41q37 0 74 -9.5t64 -24.5v32q0 87 -112 87q-43 0 -88.5 -15.5t-72.5 -37.5v132q27 18 82.5 31t119.5 13q83 0 151 -38.5zM338 97q20 7 20 28v78q-35 12 -77 12
q-49 0 -71.5 -14.5t-22.5 -45.5q0 -29 23.5 -47t55.5 -18q52 0 72 7zM106 566q-2 38 12 70t40.5 51t60.5 19q25 0 45.5 -9.5t46.5 -27.5q19 -14 32.5 -20.5t27.5 -6.5q37 0 33 59h73q2 -63 -30.5 -100.5t-81.5 -37.5q-34 0 -56.5 11t-48.5 30q-18 13 -27 18t-20 5
q-20 0 -30 -18t-8 -43h-69z" />
    <glyph glyph-name="ae" unicode="&#xe6;" horiz-adv-x="883" 
d="M789 442q57 -78 56 -228h-340q1 -57 35.5 -84.5t108.5 -27.5q39 0 79 13.5t69 31.5v-128q-71 -41 -183 -41q-56 0 -102.5 16t-80.5 46q-89 -61 -186 -61q-93 0 -149.5 40.5t-56.5 132.5q0 73 49 117t140 44q34 0 69 -9t61 -24v29q0 87 -112 87q-43 0 -88.5 -15.5
t-72.5 -37.5v134q27 18 82.5 31t119.5 13q43 0 87 -11t77 -38q62 48 160 48q121 0 178 -78zM510 309h187q-7 52 -28.5 74.5t-63.5 22.5q-80 0 -95 -97zM211 101.5q24 -17.5 61 -17.5q29 0 58.5 5.5t48.5 17.5q-21 42 -21 93v3q-35 12 -77 12q-94 0 -94 -68q0 -28 24 -45.5z
" />
    <glyph glyph-name="aeacute" unicode="&#x1fd;" horiz-adv-x="883" 
d="M789 442q57 -78 56 -228h-340q1 -57 35.5 -84.5t108.5 -27.5q39 0 79 13.5t69 31.5v-128q-71 -41 -183 -41q-56 0 -102.5 16t-80.5 46q-89 -61 -186 -61q-93 0 -149.5 40.5t-56.5 132.5q0 73 49 117t140 44q34 0 69 -9t61 -24v29q0 87 -112 87q-43 0 -88.5 -15.5
t-72.5 -37.5v134q27 18 82.5 31t119.5 13q43 0 87 -11t77 -38q62 48 160 48q121 0 178 -78zM510 309h187q-7 52 -28.5 74.5t-63.5 22.5q-80 0 -95 -97zM211 101.5q24 -17.5 61 -17.5q29 0 58.5 5.5t48.5 17.5q-21 42 -21 93v3q-35 12 -77 12q-94 0 -94 -68q0 -28 24 -45.5z
M397 565l47 124h146l-111 -124h-82z" />
    <glyph glyph-name="b" unicode="b" horiz-adv-x="601" 
d="M505 452q59 -68 59 -197q-1 -270 -266 -270q-232 0 -232 132v576h146v-205q27 16 61.5 24t61.5 8q111 0 170 -68zM415 246q0 155 -116 155q-21 0 -45 -5.5t-42 -15.5v-224q0 -47 84 -47q119 0 119 137z" />
    <glyph glyph-name="c" unicode="c" horiz-adv-x="502" 
d="M169 16q-60 29 -95.5 87.5t-35.5 142.5q0 135 72 204.5t192 69.5q42 0 85 -8.5t76 -23.5v-128q-41 18 -73 27.5t-64 9.5q-66 0 -103 -32.5t-37 -101.5q0 -77 34.5 -114t112.5 -37q59 0 131 40v-127q-36 -19 -74.5 -28.5t-86.5 -9.5q-74 0 -134 29z" />
    <glyph glyph-name="cacute" unicode="&#x107;" horiz-adv-x="502" 
d="M169 16q-60 29 -95.5 87.5t-35.5 142.5q0 135 72 204.5t192 69.5q42 0 85 -8.5t76 -23.5v-128q-41 18 -73 27.5t-64 9.5q-66 0 -103 -32.5t-37 -101.5q0 -77 34.5 -114t112.5 -37q59 0 131 40v-127q-36 -19 -74.5 -28.5t-86.5 -9.5q-74 0 -134 29zM241 565l47 124h146
l-111 -124h-82z" />
    <glyph glyph-name="ccaron" unicode="&#x10d;" horiz-adv-x="502" 
d="M169 16q-60 29 -95.5 87.5t-35.5 142.5q0 135 72 204.5t192 69.5q42 0 85 -8.5t76 -23.5v-128q-41 18 -73 27.5t-64 9.5q-66 0 -103 -32.5t-37 -101.5q0 -77 34.5 -114t112.5 -37q59 0 131 40v-127q-36 -19 -74.5 -28.5t-86.5 -9.5q-74 0 -134 29zM227 578l-81 121h95
l43 -58l43 58h95l-73 -121h-122z" />
    <glyph glyph-name="ccedilla" unicode="&#xe7;" horiz-adv-x="502" 
d="M464 25q-55 -29 -117 -36l-50 -122h-134l87 124q-94 15 -153 80.5t-59 174.5q0 135 72 204.5t192 69.5q42 0 85 -8.5t76 -23.5v-128q-41 18 -73 27.5t-64 9.5q-66 0 -103 -32.5t-37 -101.5q0 -77 34.5 -114t112.5 -37q59 0 131 40v-127z" />
    <glyph glyph-name="uni1E09" unicode="&#x1e09;" horiz-adv-x="502" 
d="M434 689l-111 -124h-82l47 124h146zM464 25q-55 -29 -117 -36l-50 -122h-134l87 124q-94 15 -153 80.5t-59 174.5q0 135 72 204.5t192 69.5q42 0 85 -8.5t76 -23.5v-128q-41 18 -73 27.5t-64 9.5q-66 0 -103 -32.5t-37 -101.5q0 -77 34.5 -114t112.5 -37q59 0 131 40
v-127z" />
    <glyph glyph-name="ccircumflex" unicode="&#x109;" horiz-adv-x="502" 
d="M169 16q-60 29 -95.5 87.5t-35.5 142.5q0 135 72 204.5t192 69.5q42 0 85 -8.5t76 -23.5v-128q-41 18 -73 27.5t-64 9.5q-66 0 -103 -32.5t-37 -101.5q0 -77 34.5 -114t112.5 -37q59 0 131 40v-127q-36 -19 -74.5 -28.5t-86.5 -9.5q-74 0 -134 29zM147 571l88 121h121
l87 -121h-99l-49 59l-49 -59h-99z" />
    <glyph glyph-name="cdotaccent" unicode="&#x10b;" horiz-adv-x="502" 
d="M169 16q-60 29 -95.5 87.5t-35.5 142.5q0 135 72 204.5t192 69.5q42 0 85 -8.5t76 -23.5v-128q-41 18 -73 27.5t-64 9.5q-66 0 -103 -32.5t-37 -101.5q0 -77 34.5 -114t112.5 -37q59 0 131 40v-127q-36 -19 -74.5 -28.5t-86.5 -9.5q-74 0 -134 29zM218 565v100h121v-100
h-121z" />
    <glyph glyph-name="d" unicode="d" horiz-adv-x="609" 
d="M543 714v-582q0 -47 -33 -80t-87 -50t-115 -17q-129 0 -199.5 61t-70.5 211q0 126 61.5 195.5t180.5 69.5q71 0 115 -26v218h148zM395 381q-40 21 -78 21q-67 0 -98 -34t-31 -115q0 -70 29 -106.5t97 -36.5q37 0 59 10t22 28v233z" />
    <glyph glyph-name="eth" unicode="&#xf0;" horiz-adv-x="582" 
d="M515.5 458q23.5 -75 23.5 -160q0 -161 -60.5 -240.5t-184.5 -79.5q-129 0 -192.5 67.5t-63.5 205.5q0 130 54 199.5t152 69.5q79 0 123 -42q-18 46 -51 88l-122 -23l-20 85l68 12q-19 16 -72 51v6h179q18 -11 40 -32l115 20l24 -78l-77 -15q41 -59 64.5 -134z
M372.5 145.5q24.5 48.5 24.5 167.5q0 36 -4 61q-20 22 -45.5 34t-53.5 12q-109 0 -109 -169q0 -81 26 -117.5t83 -36.5q54 0 78.5 48.5z" />
    <glyph glyph-name="dcaron" unicode="&#x10f;" horiz-adv-x="732" 
d="M543 714v-582q0 -47 -33 -80t-87 -50t-115 -17q-129 0 -199.5 61t-70.5 211q0 126 61.5 195.5t180.5 69.5q71 0 115 -26v218h148zM395 381q-40 21 -78 21q-67 0 -98 -34t-31 -115q0 -70 29 -106.5t97 -36.5q37 0 59 10t22 28v233zM564 510l74 196h122l-92 -196h-104z" />
    <glyph glyph-name="dcroat" unicode="&#x111;" horiz-adv-x="609" 
d="M602 555h-59v-423q0 -47 -33 -80t-87 -50t-115 -17q-129 0 -199.5 61t-70.5 211q0 126 61.5 195.5t180.5 69.5q71 0 115 -26v59h-93v91h93v68h148v-68h59v-91zM395 381q-40 21 -78 21q-67 0 -98 -34t-31 -115q0 -70 29 -106.5t97 -36.5q37 0 59 10t22 28v233z" />
    <glyph glyph-name="uni1E0F" unicode="&#x1e0f;" horiz-adv-x="609" 
d="M543 714v-582q0 -47 -33 -80t-87 -50t-115 -17q-129 0 -199.5 61t-70.5 211q0 126 61.5 195.5t180.5 69.5q71 0 115 -26v218h148zM395 381q-40 21 -78 21q-67 0 -98 -34t-31 -115q0 -70 29 -106.5t97 -36.5q37 0 59 10t22 28v233zM177 -144v95h276v-95h-276z" />
    <glyph glyph-name="uni01C6" unicode="&#x1c6;" horiz-adv-x="1101" 
d="M543 714v-582q0 -47 -33 -80t-87 -50t-115 -17q-129 0 -199.5 61t-70.5 211q0 126 61.5 195.5t180.5 69.5q71 0 115 -26v218h148zM395 381q-40 21 -78 21q-67 0 -98 -34t-31 -115q0 -70 29 -106.5t97 -36.5q37 0 59 10t22 28v233zM1056 506v-116l-221 -271h221v-119h-402
v118l245 276h-239v112h396zM801 564l-81 121h95l43 -58l43 58h95l-73 -121h-122z" />
    <glyph glyph-name="e" unicode="e" horiz-adv-x="562" 
d="M524 214h-334q19 -105 141 -105q37 0 72.5 10.5t75.5 27.5v-128q-82 -34 -184 -34q-77 0 -135 31.5t-90 90.5t-32 139q0 132 65.5 204.5t186.5 72.5q237 0 234 -309zM189 309h187q-7 54 -28.5 77t-63.5 23q-80 0 -95 -100z" />
    <glyph glyph-name="eacute" unicode="&#xe9;" horiz-adv-x="562" 
d="M524 214h-334q19 -105 141 -105q37 0 72.5 10.5t75.5 27.5v-128q-82 -34 -184 -34q-77 0 -135 31.5t-90 90.5t-32 139q0 132 65.5 204.5t186.5 72.5q237 0 234 -309zM189 309h187q-7 54 -28.5 77t-63.5 23q-80 0 -95 -100zM242 565l47 124h146l-111 -124h-82z" />
    <glyph glyph-name="ebreve" unicode="&#x115;" horiz-adv-x="562" 
d="M524 214h-334q19 -105 141 -105q37 0 72.5 10.5t75.5 27.5v-128q-82 -34 -184 -34q-77 0 -135 31.5t-90 90.5t-32 139q0 132 65.5 204.5t186.5 72.5q237 0 234 -309zM189 309h187q-7 54 -28.5 77t-63.5 23q-80 0 -95 -100zM138 685h83q8 -24 25 -41t43 -17q46 0 67 58h84
q-7 -61 -44.5 -97t-106.5 -36q-127 0 -151 133z" />
    <glyph glyph-name="ecaron" unicode="&#x11b;" horiz-adv-x="562" 
d="M524 214h-334q19 -105 141 -105q37 0 72.5 10.5t75.5 27.5v-128q-82 -34 -184 -34q-77 0 -135 31.5t-90 90.5t-32 139q0 132 65.5 204.5t186.5 72.5q237 0 234 -309zM189 309h187q-7 54 -28.5 77t-63.5 23q-80 0 -95 -100zM228 578l-81 121h95l43 -58l43 58h95l-73 -121
h-122z" />
    <glyph glyph-name="uni1E1D" unicode="&#x1e1d;" horiz-adv-x="562" 
d="M138 685h83q8 -24 25 -41t43 -17q46 0 67 58h84q-7 -61 -44.5 -97t-106.5 -36q-126 0 -151 133zM524 214h-334q19 -105 141 -105q37 0 72.5 10.5t75.5 27.5v-128q-42 -18 -89 -26l-51 -126h-134l83 118q-75 1 -131.5 33t-87.5 90.5t-31 137.5q0 132 65.5 204.5
t186.5 72.5q237 0 234 -309zM189 309h187q-7 54 -28.5 77t-63.5 23q-80 0 -95 -100z" />
    <glyph glyph-name="ecircumflex" unicode="&#xea;" horiz-adv-x="562" 
d="M524 214h-334q19 -105 141 -105q37 0 72.5 10.5t75.5 27.5v-128q-82 -34 -184 -34q-77 0 -135 31.5t-90 90.5t-32 139q0 132 65.5 204.5t186.5 72.5q237 0 234 -309zM189 309h187q-7 54 -28.5 77t-63.5 23q-80 0 -95 -100zM148 571l88 121h121l87 -121h-99l-49 59
l-49 -59h-99z" />
    <glyph glyph-name="uni1EBF" unicode="&#x1ebf;" horiz-adv-x="562" 
d="M524 214h-334q19 -105 141 -105q37 0 72.5 10.5t75.5 27.5v-128q-82 -34 -184 -34q-77 0 -135 31.5t-90 90.5t-32 139q0 132 65.5 204.5t186.5 72.5q237 0 234 -309zM189 309h187q-7 54 -28.5 77t-63.5 23q-80 0 -95 -100zM142 557l88 121h121l87 -121h-99l-49 59
l-49 -59h-99zM409 630l36 113h156l-118 -113h-74z" />
    <glyph glyph-name="uni1EC7" unicode="&#x1ec7;" horiz-adv-x="562" 
d="M524 214h-334q19 -105 141 -105q37 0 72.5 10.5t75.5 27.5v-128q-82 -34 -184 -34q-77 0 -135 31.5t-90 90.5t-32 139q0 132 65.5 204.5t186.5 72.5q237 0 234 -309zM189 309h187q-7 54 -28.5 77t-63.5 23q-80 0 -95 -100zM148 571l88 121h121l87 -121h-99l-49 59
l-49 -59h-99zM242 -150v100h108v-100h-108z" />
    <glyph glyph-name="uni1EC1" unicode="&#x1ec1;" horiz-adv-x="562" 
d="M524 214h-334q19 -105 141 -105q37 0 72.5 10.5t75.5 27.5v-128q-82 -34 -184 -34q-77 0 -135 31.5t-90 90.5t-32 139q0 132 65.5 204.5t186.5 72.5q237 0 234 -309zM189 309h187q-7 54 -28.5 77t-63.5 23q-80 0 -95 -100zM148 557l88 121h121l87 -121h-99l-49 59
l-49 -59h-99zM80 629l-97 111h132l47 -111h-82z" />
    <glyph glyph-name="uni1EC3" unicode="&#x1ec3;" horiz-adv-x="562" 
d="M524 214h-334q19 -105 141 -105q37 0 72.5 10.5t75.5 27.5v-128q-82 -34 -184 -34q-77 0 -135 31.5t-90 90.5t-32 139q0 132 65.5 204.5t186.5 72.5q237 0 234 -309zM189 309h187q-7 54 -28.5 77t-63.5 23q-80 0 -95 -100zM132 561l88 121h121l87 -121h-99l-49 59
l-49 -59h-99zM408 680q17 1 27 8t10 16q0 24 -42 24q-13 0 -30 -3v58q22 5 58 5q50 0 81 -19t31 -59q0 -28 -15 -45t-42 -18v-24h-78v57z" />
    <glyph glyph-name="uni1EC5" unicode="&#x1ec5;" horiz-adv-x="562" 
d="M524 214h-334q19 -105 141 -105q37 0 72.5 10.5t75.5 27.5v-128q-82 -34 -184 -34q-77 0 -135 31.5t-90 90.5t-32 139q0 132 65.5 204.5t186.5 72.5q237 0 234 -309zM189 309h187q-7 54 -28.5 77t-63.5 23q-80 0 -95 -100zM147 545l88 121h121l87 -121h-99l-49 59
l-49 -59h-99zM110 709q-2 38 12 70t40.5 51t60.5 19q25 0 45.5 -9.5t46.5 -27.5q19 -14 32.5 -20.5t27.5 -6.5q37 0 33 59h73q2 -63 -30.5 -100.5t-81.5 -37.5q-34 0 -56.5 11t-48.5 30q-18 13 -27 18t-20 5q-20 0 -30 -18t-8 -43h-69z" />
    <glyph glyph-name="uni0205" unicode="&#x205;" horiz-adv-x="562" 
d="M524 214h-334q19 -105 141 -105q37 0 72.5 10.5t75.5 27.5v-128q-82 -34 -184 -34q-77 0 -135 31.5t-90 90.5t-32 139q0 132 65.5 204.5t186.5 72.5q237 0 234 -309zM189 309h187q-7 54 -28.5 77t-63.5 23q-80 0 -95 -100zM179 565l-111 124h146l46 -124h-81zM363 565
l-111 124h146l46 -124h-81z" />
    <glyph glyph-name="edieresis" unicode="&#xeb;" horiz-adv-x="562" 
d="M524 214h-334q19 -105 141 -105q37 0 72.5 10.5t75.5 27.5v-128q-82 -34 -184 -34q-77 0 -135 31.5t-90 90.5t-32 139q0 132 65.5 204.5t186.5 72.5q237 0 234 -309zM189 309h187q-7 54 -28.5 77t-63.5 23q-80 0 -95 -100zM140 572v100h128v-100h-128zM323 572v100h129
v-100h-129z" />
    <glyph glyph-name="edotaccent" unicode="&#x117;" horiz-adv-x="562" 
d="M524 214h-334q19 -105 141 -105q37 0 72.5 10.5t75.5 27.5v-128q-82 -34 -184 -34q-77 0 -135 31.5t-90 90.5t-32 139q0 132 65.5 204.5t186.5 72.5q237 0 234 -309zM189 309h187q-7 54 -28.5 77t-63.5 23q-80 0 -95 -100zM219 565v100h121v-100h-121z" />
    <glyph glyph-name="uni1EB9" unicode="&#x1eb9;" horiz-adv-x="562" 
d="M524 214h-334q19 -105 141 -105q37 0 72.5 10.5t75.5 27.5v-128q-82 -34 -184 -34q-77 0 -135 31.5t-90 90.5t-32 139q0 132 65.5 204.5t186.5 72.5q237 0 234 -309zM189 309h187q-7 54 -28.5 77t-63.5 23q-80 0 -95 -100zM242 -150v100h108v-100h-108z" />
    <glyph glyph-name="egrave" unicode="&#xe8;" horiz-adv-x="562" 
d="M524 214h-334q19 -105 141 -105q37 0 72.5 10.5t75.5 27.5v-128q-82 -34 -184 -34q-77 0 -135 31.5t-90 90.5t-32 139q0 132 65.5 204.5t186.5 72.5q237 0 234 -309zM189 309h187q-7 54 -28.5 77t-63.5 23q-80 0 -95 -100zM251 565l-111 124h146l46 -124h-81z" />
    <glyph glyph-name="uni1EBB" unicode="&#x1ebb;" horiz-adv-x="562" 
d="M524 214h-334q19 -105 141 -105q37 0 72.5 10.5t75.5 27.5v-128q-82 -34 -184 -34q-77 0 -135 31.5t-90 90.5t-32 139q0 132 65.5 204.5t186.5 72.5q237 0 234 -309zM189 309h187q-7 54 -28.5 77t-63.5 23q-80 0 -95 -100zM256 613q17 1 27 8t10 16q0 24 -42 24
q-13 0 -30 -3v58q22 5 58 5q50 0 81 -19t31 -59q0 -28 -15 -45t-42 -18v-24h-78v57z" />
    <glyph glyph-name="uni0207" unicode="&#x207;" horiz-adv-x="562" 
d="M524 214h-334q19 -105 141 -105q37 0 72.5 10.5t75.5 27.5v-128q-82 -34 -184 -34q-77 0 -135 31.5t-90 90.5t-32 139q0 132 65.5 204.5t186.5 72.5q237 0 234 -309zM189 309h187q-7 54 -28.5 77t-63.5 23q-80 0 -95 -100zM395.5 636q37.5 -36 44.5 -97h-84
q-21 58 -67 58q-26 0 -43 -17t-25 -41h-83q24 133 151 133q69 0 106.5 -36z" />
    <glyph glyph-name="emacron" unicode="&#x113;" horiz-adv-x="562" 
d="M524 214h-334q19 -105 141 -105q37 0 72.5 10.5t75.5 27.5v-128q-82 -34 -184 -34q-77 0 -135 31.5t-90 90.5t-32 139q0 132 65.5 204.5t186.5 72.5q237 0 234 -309zM189 309h187q-7 54 -28.5 77t-63.5 23q-80 0 -95 -100zM147 566v95h276v-95h-276z" />
    <glyph glyph-name="uni1E17" unicode="&#x1e17;" horiz-adv-x="562" 
d="M524 214h-334q19 -105 141 -105q37 0 72.5 10.5t75.5 27.5v-128q-82 -34 -184 -34q-77 0 -135 31.5t-90 90.5t-32 139q0 132 65.5 204.5t186.5 72.5q237 0 234 -309zM189 309h187q-7 54 -28.5 77t-63.5 23q-80 0 -95 -100zM147 566v95h276v-95h-276zM242 706l47 124h146
l-111 -124h-82z" />
    <glyph glyph-name="uni1E15" unicode="&#x1e15;" horiz-adv-x="562" 
d="M524 214h-334q19 -105 141 -105q37 0 72.5 10.5t75.5 27.5v-128q-82 -34 -184 -34q-77 0 -135 31.5t-90 90.5t-32 139q0 132 65.5 204.5t186.5 72.5q237 0 234 -309zM189 309h187q-7 54 -28.5 77t-63.5 23q-80 0 -95 -100zM147 566v95h276v-95h-276zM251 706l-111 124
h146l46 -124h-81z" />
    <glyph glyph-name="eogonek" unicode="&#x119;" horiz-adv-x="562" 
d="M524 214h-334q19 -105 141 -105q37 0 72.5 10.5t75.5 27.5v-128l-17 -7h1q-44 -18 -70.5 -38t-26.5 -39q0 -20 9 -28t26 -8q29 0 65 34v-85q-19 -11 -39.5 -17.5t-51.5 -6.5q-65 0 -96 24t-31 72q0 35 32 65q-72 3 -127 35t-85 90t-30 136q0 132 65.5 204.5t186.5 72.5
q237 0 234 -309zM189 309h187q-7 54 -28.5 77t-63.5 23q-80 0 -95 -100z" />
    <glyph glyph-name="uni1EBD" unicode="&#x1ebd;" horiz-adv-x="562" 
d="M524 214h-334q19 -105 141 -105q37 0 72.5 10.5t75.5 27.5v-128q-82 -34 -184 -34q-77 0 -135 31.5t-90 90.5t-32 139q0 132 65.5 204.5t186.5 72.5q237 0 234 -309zM189 309h187q-7 54 -28.5 77t-63.5 23q-80 0 -95 -100zM111 559q-2 38 12 70t40.5 51t60.5 19
q25 0 45.5 -9.5t46.5 -27.5q19 -14 32.5 -20.5t27.5 -6.5q37 0 33 59h73q2 -63 -30.5 -100.5t-81.5 -37.5q-34 0 -56.5 11t-48.5 30q-18 13 -27 18t-20 5q-20 0 -30 -18t-8 -43h-69z" />
    <glyph glyph-name="uni0259" unicode="&#x259;" horiz-adv-x="562" 
d="M402 482.5q58 -31.5 90 -90.5t32 -139q0 -132 -65.5 -204.5t-186.5 -72.5q-237 0 -234 309h334q-19 105 -141 105q-37 0 -72.5 -10.5t-75.5 -27.5v128q82 34 184 34q77 0 135 -31.5zM373 190h-187q7 -54 28.5 -77t63.5 -23q80 0 95 100z" />
    <glyph glyph-name="f" unicode="f" horiz-adv-x="394" 
d="M104 392h-74v114h75v12q1 114 52.5 158.5t140.5 44.5q16 0 35 -3t31 -7v-131q-11 11 -22 16.5t-28 5.5q-28 0 -44 -15t-16 -51v-30h110v-114h-111v-392h-149v392z" />
    <glyph glyph-name="g" unicode="g" horiz-adv-x="593" 
d="M476.5 484.5q57.5 -35.5 57.5 -100.5v-390q0 -105 -67 -161t-191 -56q-64 0 -112 9t-75 24v131q29 -14 81 -27t100 -13q65 0 91.5 26t26.5 73v29q-51 -44 -128 -44q-106 5 -164 67.5t-58 184.5q0 158 72.5 220.5t210.5 62.5q98 0 155.5 -35.5zM216.5 136.5
q30.5 -40.5 81.5 -40.5q50 0 90 23v232q0 51 -80 51q-122 0 -122 -156q0 -69 30.5 -109.5z" />
    <glyph glyph-name="gbreve" unicode="&#x11f;" horiz-adv-x="593" 
d="M476.5 484.5q57.5 -35.5 57.5 -100.5v-390q0 -105 -67 -161t-191 -56q-64 0 -112 9t-75 24v131q29 -14 81 -27t100 -13q65 0 91.5 26t26.5 73v29q-51 -44 -128 -44q-106 5 -164 67.5t-58 184.5q0 158 72.5 220.5t210.5 62.5q98 0 155.5 -35.5zM216.5 136.5
q30.5 -40.5 81.5 -40.5q50 0 90 23v232q0 51 -80 51q-122 0 -122 -156q0 -69 30.5 -109.5zM175 692h83q8 -24 25 -41t43 -17q46 0 67 58h84q-7 -61 -44.5 -97t-106.5 -36q-127 0 -151 133z" />
    <glyph glyph-name="gcaron" unicode="&#x1e7;" horiz-adv-x="593" 
d="M476.5 484.5q57.5 -35.5 57.5 -100.5v-390q0 -105 -67 -161t-191 -56q-64 0 -112 9t-75 24v131q29 -14 81 -27t100 -13q65 0 91.5 26t26.5 73v29q-51 -44 -128 -44q-106 5 -164 67.5t-58 184.5q0 158 72.5 220.5t210.5 62.5q98 0 155.5 -35.5zM216.5 136.5
q30.5 -40.5 81.5 -40.5q50 0 90 23v232q0 51 -80 51q-122 0 -122 -156q0 -69 30.5 -109.5zM265 585l-81 121h95l43 -58l43 58h95l-73 -121h-122z" />
    <glyph glyph-name="gcircumflex" unicode="&#x11d;" horiz-adv-x="593" 
d="M476.5 484.5q57.5 -35.5 57.5 -100.5v-390q0 -105 -67 -161t-191 -56q-64 0 -112 9t-75 24v131q29 -14 81 -27t100 -13q65 0 91.5 26t26.5 73v29q-51 -44 -128 -44q-106 5 -164 67.5t-58 184.5q0 158 72.5 220.5t210.5 62.5q98 0 155.5 -35.5zM216.5 136.5
q30.5 -40.5 81.5 -40.5q50 0 90 23v232q0 51 -80 51q-122 0 -122 -156q0 -69 30.5 -109.5zM185 578l88 121h121l87 -121h-99l-49 59l-49 -59h-99z" />
    <glyph glyph-name="gcommaaccent" unicode="&#x123;" horiz-adv-x="593" 
d="M258 570q-2 64 39 103t112 41v-69q-23 -6 -31 -24t-8 -51h-112zM476.5 484.5q57.5 -35.5 57.5 -100.5v-390q0 -105 -67 -161t-191 -56q-64 0 -112 9t-75 24v131q29 -14 81 -27t100 -13q65 0 91.5 26t26.5 73v29q-51 -44 -128 -44q-106 5 -164 67.5t-58 184.5
q0 158 72.5 220.5t210.5 62.5q98 0 155.5 -35.5zM216.5 136.5q30.5 -40.5 81.5 -40.5q50 0 90 23v232q0 51 -80 51q-122 0 -122 -156q0 -69 30.5 -109.5z" />
    <glyph glyph-name="gdotaccent" unicode="&#x121;" horiz-adv-x="593" 
d="M476.5 484.5q57.5 -35.5 57.5 -100.5v-390q0 -105 -67 -161t-191 -56q-64 0 -112 9t-75 24v131q29 -14 81 -27t100 -13q65 0 91.5 26t26.5 73v29q-51 -44 -128 -44q-106 5 -164 67.5t-58 184.5q0 158 72.5 220.5t210.5 62.5q98 0 155.5 -35.5zM216.5 136.5
q30.5 -40.5 81.5 -40.5q50 0 90 23v232q0 51 -80 51q-122 0 -122 -156q0 -69 30.5 -109.5zM256 572v100h121v-100h-121z" />
    <glyph glyph-name="uni1E21" unicode="&#x1e21;" horiz-adv-x="593" 
d="M476.5 484.5q57.5 -35.5 57.5 -100.5v-390q0 -105 -67 -161t-191 -56q-64 0 -112 9t-75 24v131q29 -14 81 -27t100 -13q65 0 91.5 26t26.5 73v29q-51 -44 -128 -44q-106 5 -164 67.5t-58 184.5q0 158 72.5 220.5t210.5 62.5q98 0 155.5 -35.5zM216.5 136.5
q30.5 -40.5 81.5 -40.5q50 0 90 23v232q0 51 -80 51q-122 0 -122 -156q0 -69 30.5 -109.5zM184 573v95h276v-95h-276z" />
    <glyph glyph-name="h" unicode="h" horiz-adv-x="611" 
d="M496 476q49 -44 49 -144v-332h-149v301q0 96 -96 96q-23 0 -47 -7t-37 -17l-2 -373h-148v706h150v-223q69 37 143 37q88 0 137 -44z" />
    <glyph glyph-name="hbar" unicode="&#x127;" horiz-adv-x="611" 
d="M496 476q49 -44 49 -144v-332h-149v301q0 96 -96 96q-23 0 -47 -7t-37 -17l-2 -373h-148v549h-69v91h69v66h150v-66h81v-91h-81v-66q69 37 143 37q88 0 137 -44z" />
    <glyph glyph-name="uni1E2B" unicode="&#x1e2b;" horiz-adv-x="611" 
d="M496 476q49 -44 49 -144v-332h-149v301q0 96 -96 96q-23 0 -47 -7t-37 -17l-2 -373h-148v706h150v-223q69 37 143 37q88 0 137 -44zM149 -35h83q8 -24 25 -41t43 -17q46 0 67 58h84q-7 -61 -44.5 -97t-106.5 -36q-127 0 -151 133z" />
    <glyph glyph-name="hcircumflex" unicode="&#x125;" horiz-adv-x="611" 
d="M496 476q49 -44 49 -144v-332h-149v301q0 96 -96 96q-23 0 -47 -7t-37 -17l-2 -373h-148v706h150v-223q69 37 143 37q88 0 137 -44zM-11 745l88 121h121l87 -121h-99l-49 59l-49 -59h-99z" />
    <glyph glyph-name="i" unicode="i" horiz-adv-x="286" 
d="M66 575v115h154v-115h-154zM69 0v499h149l1 -499h-150z" />
    <glyph glyph-name="dotlessi" unicode="&#x131;" horiz-adv-x="282" 
d="M66 0v499h149l1 -499h-150z" />
    <glyph glyph-name="iacute" unicode="&#xed;" horiz-adv-x="332" 
d="M131 558l61 117h104l-90 -117h-75zM97 0v499h142v-499h-142z" />
    <glyph glyph-name="ibreve" unicode="&#x12d;" horiz-adv-x="282" 
d="M66 0v499h149l1 -499h-150zM-10 671h83q8 -24 25 -41t43 -17q46 0 67 58h84q-7 -61 -44.5 -97t-106.5 -36q-127 0 -151 133z" />
    <glyph glyph-name="uni01D0" unicode="&#x1d0;" horiz-adv-x="282" 
d="M66 0v499h149l1 -499h-150zM80 564l-81 121h95l43 -58l43 58h95l-73 -121h-122z" />
    <glyph glyph-name="icircumflex" unicode="&#xee;" horiz-adv-x="332" 
d="M37 558l108 122h46l108 -122h-88l-43 52l-43 -52h-88zM97 0v499h142v-499h-142z" />
    <glyph glyph-name="uni0209" unicode="&#x209;" horiz-adv-x="282" 
d="M66 0v499h149l1 -499h-150zM31 551l-111 124h146l46 -124h-81zM215 551l-111 124h146l46 -124h-81z" />
    <glyph glyph-name="idieresis" unicode="&#xef;" horiz-adv-x="332" 
d="M32 558v100h108v-100h-108zM196 558v100h107v-100h-107zM97 0v499h142v-499h-142z" />
    <glyph glyph-name="uni1E2F" unicode="&#x1e2f;" horiz-adv-x="282" 
d="M66 0v499h149l1 -499h-150zM-8 558v100h128v-100h-128zM175 558v100h129v-100h-129zM94 710l47 124h146l-111 -124h-82z" />
    <glyph glyph-name="i.loclTRK" horiz-adv-x="286" 
d="M66 575v115h154v-115h-154z" />
    <glyph glyph-name="uni1ECB" unicode="&#x1ecb;" horiz-adv-x="332" 
d="M94 566v115h148v-115h-148zM97 0v499h142v-499h-142zM114 -150v100h108v-100h-108z" />
    <glyph glyph-name="igrave" unicode="&#xec;" horiz-adv-x="332" 
d="M130 563l-90 117h104l61 -117h-75zM97 0v499h142v-499h-142z" />
    <glyph glyph-name="uni1EC9" unicode="&#x1ec9;" horiz-adv-x="332" 
d="M142 615q13 1 21.5 5.5t8.5 12.5q0 12 -10 17.5t-26 5.5q-12 0 -29 -3v50q18 4 44 4q39 0 65.5 -18t26.5 -53q0 -26 -17 -38.5t-33 -15.5v-24h-51v57zM97 0v499h142v-499h-142z" />
    <glyph glyph-name="uni020B" unicode="&#x20b;" horiz-adv-x="282" 
d="M66 0v499h149l1 -499h-150zM247.5 622q37.5 -36 44.5 -97h-84q-21 58 -67 58q-26 0 -43 -17t-25 -41h-83q24 133 151 133q69 0 106.5 -36z" />
    <glyph glyph-name="ij" unicode="&#x133;" horiz-adv-x="590" 
d="M66 575v115h154v-115h-154zM69 0v499h149l1 -499h-150zM370 582v115h154v-115h-154zM293 -72q5 -1 15 -1q64 0 64 69v510h149l2 -510q0 -102 -61.5 -145.5t-168.5 -43.5v121z" />
    <glyph glyph-name="imacron" unicode="&#x12b;" horiz-adv-x="332" 
d="M51 562v78h234v-78h-234zM97 0v499h142v-499h-142z" />
    <glyph glyph-name="iogonek" unicode="&#x12f;" horiz-adv-x="286" 
d="M220 690v-115h-154v115h154zM223 -78v-85q-19 -11 -39.5 -17.5t-51.5 -6.5q-65 0 -96 24t-31 72q0 51 68 91h-4v499h149l1 -498h1h-1v-1h-1q-95 -40 -95 -77q0 -20 9 -27.5t26 -7.5q29 0 65 34z" />
    <glyph glyph-name="itilde" unicode="&#x129;" horiz-adv-x="282" 
d="M66 0v499h149l1 -499h-150zM-37 545q-2 38 12 70t40.5 51t60.5 19q25 0 45.5 -9.5t46.5 -27.5q19 -14 32.5 -20.5t27.5 -6.5q37 0 33 59h73q2 -63 -30.5 -100.5t-81.5 -37.5q-34 0 -56.5 11t-48.5 30q-18 13 -27 18t-20 5q-20 0 -30 -18t-8 -43h-69z" />
    <glyph glyph-name="j" unicode="j" horiz-adv-x="304" 
d="M84 582v115h154v-115h-154zM7 -72q5 -1 15 -1q64 0 64 69v510h149l2 -510q0 -102 -61.5 -145.5t-168.5 -43.5v121z" />
    <glyph glyph-name="uni0237" unicode="&#x237;" horiz-adv-x="306" 
d="M3 -86q42 0 65 16.5t23 56.5v512h142v-503q0 -102 -61 -145.5t-169 -43.5v107z" />
    <glyph glyph-name="jcircumflex" unicode="&#x135;" horiz-adv-x="302" 
d="M31 558l108 122h46l108 -122h-88l-43 52l-43 -52h-88zM3 -86q42 0 65 16.5t23 56.5v512h142v-503q0 -102 -61 -145.5t-169 -43.5v107z" />
    <glyph glyph-name="k" unicode="k" horiz-adv-x="588" 
d="M562 0h-189l-158 209l-1 -209h-148v697h150l-1 -378l153 187h181l-209 -220z" />
    <glyph glyph-name="kcommaaccent" unicode="&#x137;" horiz-adv-x="616" 
d="M89 0v687h142v-346l141 158h183l-206 -223l229 -276h-174l-143 178l-30 -32v-146h-142zM236 -132q22 6 30.5 26.5t8.5 55.5h84q1 -41 -15.5 -73.5t-45 -50.5t-62.5 -20v62z" />
    <glyph glyph-name="kgreenlandic" unicode="&#x138;" horiz-adv-x="616" 
d="M89 0v499h142v-158l141 158h183l-206 -223l229 -276h-174l-143 178l-30 -32v-146h-142z" />
    <glyph glyph-name="l" unicode="l" horiz-adv-x="280" 
d="M214 0h-148v697h148v-697z" />
    <glyph glyph-name="lacute" unicode="&#x13a;" horiz-adv-x="280" 
d="M214 0h-148v697h148v-697zM101 726l36 113h156l-118 -113h-74z" />
    <glyph glyph-name="lcaron" unicode="&#x13e;" horiz-adv-x="373" 
d="M101 0v689h142v-689h-142zM290 607q22 6 31 27t8 55h84q1 -41 -15.5 -73t-45 -50.5t-62.5 -20.5v62z" />
    <glyph glyph-name="lcommaaccent" unicode="&#x13c;" horiz-adv-x="280" 
d="M214 0h-148v697h148v-697zM57 -125q23 6 31 24t8 51h112q2 -64 -39 -103t-112 -41v69z" />
    <glyph glyph-name="ldot" unicode="&#x140;" horiz-adv-x="280" 
d="M214 0h-148v697h148v-697zM76 200v121h125v-121h-125z" />
    <glyph glyph-name="uni1E37" unicode="&#x1e37;" horiz-adv-x="280" 
d="M214 0h-148v697h148v-697zM86 -150v100h108v-100h-108z" />
    <glyph glyph-name="uni01C9" unicode="&#x1c9;" horiz-adv-x="584" 
d="M214 0h-148v697h148v-697zM364 582v115h154v-115h-154zM287 -72q5 -1 15 -1q64 0 64 69v510h149l2 -510q0 -102 -61.5 -145.5t-168.5 -43.5v121z" />
    <glyph glyph-name="uni1E3B" unicode="&#x1e3b;" horiz-adv-x="280" 
d="M214 0h-148v697h148v-697zM1 -144v95h276v-95h-276z" />
    <glyph glyph-name="lslash" unicode="&#x142;" horiz-adv-x="383" 
d="M112 0v253l-89 -51v105l89 51v331h142v-251l114 66v-105l-114 -66v-333h-142z" />
    <glyph glyph-name="m" unicode="m" horiz-adv-x="916" 
d="M799 478.5q51 -41.5 51 -138.5v-340h-149v310q0 87 -98 87q-41 0 -69 -19q2 -24 2 -38v-340h-149v310q0 87 -98 87q-40 0 -74 -17v-380h-149v463q39 21 119 39t143 18q101 0 149 -36q39 17 82.5 26.5t82.5 9.5q106 0 157 -41.5z" />
    <glyph glyph-name="uni1E43" unicode="&#x1e43;" horiz-adv-x="916" 
d="M799 478.5q51 -41.5 51 -138.5v-340h-149v310q0 87 -98 87q-41 0 -69 -19q2 -24 2 -38v-340h-149v310q0 87 -98 87q-40 0 -74 -17v-380h-149v463q39 21 119 39t143 18q101 0 149 -36q39 17 82.5 26.5t82.5 9.5q106 0 157 -41.5zM404 -150v100h108v-100h-108z" />
    <glyph glyph-name="n" unicode="n" horiz-adv-x="609" 
d="M185 502q80 18 143 18q107 0 161 -42t54 -138v-340h-149v310q0 87 -98 87q-22 0 -45 -5t-36 -12v-380h-149v463q39 21 119 39z" />
    <glyph glyph-name="nacute" unicode="&#x144;" horiz-adv-x="609" 
d="M185 502q80 18 143 18q107 0 161 -42t54 -138v-340h-149v310q0 87 -98 87q-22 0 -45 -5t-36 -12v-380h-149v463q39 21 119 39zM257 565l47 124h146l-111 -124h-82z" />
    <glyph glyph-name="napostrophe" unicode="&#x149;" horiz-adv-x="627" 
d="M34 582q23 6 31.5 26.5t7.5 55.5h85q1 -62 -35.5 -102t-88.5 -42v62zM82 450q35 17 96.5 37t140.5 20q102 0 161 -54t59 -150v-303h-142v322q0 31 -19 51.5t-79 20.5q-40 0 -75 -10v-384h-142v450z" />
    <glyph glyph-name="ncaron" unicode="&#x148;" horiz-adv-x="609" 
d="M185 502q80 18 143 18q107 0 161 -42t54 -138v-340h-149v310q0 87 -98 87q-22 0 -45 -5t-36 -12v-380h-149v463q39 21 119 39zM243 578l-81 121h95l43 -58l43 58h95l-73 -121h-122z" />
    <glyph glyph-name="ncommaaccent" unicode="&#x146;" horiz-adv-x="609" 
d="M185 502q80 18 143 18q107 0 161 -42t54 -138v-340h-149v310q0 87 -98 87q-22 0 -45 -5t-36 -12v-380h-149v463q39 21 119 39zM221 -125q23 6 31 24t8 51h112q2 -64 -39 -103t-112 -41v69z" />
    <glyph glyph-name="uni1E45" unicode="&#x1e45;" horiz-adv-x="609" 
d="M185 502q80 18 143 18q107 0 161 -42t54 -138v-340h-149v310q0 87 -98 87q-22 0 -45 -5t-36 -12v-380h-149v463q39 21 119 39zM234 565v100h121v-100h-121z" />
    <glyph glyph-name="uni1E47" unicode="&#x1e47;" horiz-adv-x="609" 
d="M185 502q80 18 143 18q107 0 161 -42t54 -138v-340h-149v310q0 87 -98 87q-22 0 -45 -5t-36 -12v-380h-149v463q39 21 119 39zM250 -150v100h108v-100h-108z" />
    <glyph glyph-name="eng" unicode="&#x14b;" horiz-adv-x="622" 
d="M64 426q36 28 103 54.5t131 26.5q104 0 165 -42.5t61 -135.5v-332q0 -101 -62.5 -142.5t-171.5 -41.5v114q42 0 65 16.5t23 56.5v286q0 43 -20.5 67.5t-71.5 24.5q-22 0 -39 -6t-37 -15v-357h-146v426z" />
    <glyph glyph-name="uni0272" unicode="&#x272;" horiz-adv-x="609" 
d="M66 463q39 21 119 39t143 18q107 0 161 -42t54 -138v-340h-149v310q0 87 -98 87q-22 0 -45 -5t-36 -12v-375q0 -102 -60.5 -145.5t-168.5 -43.5v121q6 -1 16 -1q64 0 64 69v458z" />
    <glyph glyph-name="uni01CC" unicode="&#x1cc;" horiz-adv-x="913" 
d="M185 502q80 18 143 18q107 0 161 -42t54 -138v-340h-149v310q0 87 -98 87q-22 0 -45 -5t-36 -12v-380h-149v463q39 21 119 39zM693 582v115h154v-115h-154zM616 -72q5 -1 15 -1q64 0 64 69v510h149l2 -510q0 -102 -61.5 -145.5t-168.5 -43.5v121z" />
    <glyph glyph-name="uni1E49" unicode="&#x1e49;" horiz-adv-x="609" 
d="M185 502q80 18 143 18q107 0 161 -42t54 -138v-340h-149v310q0 87 -98 87q-22 0 -45 -5t-36 -12v-380h-149v463q39 21 119 39zM165 -144v95h276v-95h-276z" />
    <glyph glyph-name="ntilde" unicode="&#xf1;" horiz-adv-x="609" 
d="M185 502q80 18 143 18q107 0 161 -42t54 -138v-340h-149v310q0 87 -98 87q-22 0 -45 -5t-36 -12v-380h-149v463q39 21 119 39zM126 559q-2 38 12 70t40.5 51t60.5 19q25 0 45.5 -9.5t46.5 -27.5q19 -14 32.5 -20.5t27.5 -6.5q37 0 33 59h73q2 -63 -30.5 -100.5
t-81.5 -37.5q-34 0 -56.5 11t-48.5 30q-18 13 -27 18t-20 5q-20 0 -30 -18t-8 -43h-69z" />
    <glyph glyph-name="o" unicode="o" horiz-adv-x="590" 
d="M102 53q-64 68 -64 202q0 140 63.5 204t192.5 64t194 -65.5t65 -202.5q0 -132 -67 -201t-192 -69q-128 0 -192 68zM377 142.5q28 38.5 28 112.5q0 81 -27.5 115.5t-83.5 34.5q-58 0 -83.5 -34.5t-25.5 -115.5q0 -77 26.5 -114t82.5 -37q55 0 83 38.5z" />
    <glyph glyph-name="oacute" unicode="&#xf3;" horiz-adv-x="590" 
d="M102 53q-64 68 -64 202q0 140 63.5 204t192.5 64t194 -65.5t65 -202.5q0 -132 -67 -201t-192 -69q-128 0 -192 68zM377 142.5q28 38.5 28 112.5q0 81 -27.5 115.5t-83.5 34.5q-58 0 -83.5 -34.5t-25.5 -115.5q0 -77 26.5 -114t82.5 -37q55 0 83 38.5zM249 572l47 124h146
l-111 -124h-82z" />
    <glyph glyph-name="obreve" unicode="&#x14f;" horiz-adv-x="590" 
d="M102 53q-64 68 -64 202q0 140 63.5 204t192.5 64t194 -65.5t65 -202.5q0 -132 -67 -201t-192 -69q-128 0 -192 68zM377 142.5q28 38.5 28 112.5q0 81 -27.5 115.5t-83.5 34.5q-58 0 -83.5 -34.5t-25.5 -115.5q0 -77 26.5 -114t82.5 -37q55 0 83 38.5zM145 692h83
q8 -24 25 -41t43 -17q46 0 67 58h84q-7 -61 -44.5 -97t-106.5 -36q-127 0 -151 133z" />
    <glyph glyph-name="uni01D2" unicode="&#x1d2;" horiz-adv-x="590" 
d="M102 53q-64 68 -64 202q0 140 63.5 204t192.5 64t194 -65.5t65 -202.5q0 -132 -67 -201t-192 -69q-128 0 -192 68zM377 142.5q28 38.5 28 112.5q0 81 -27.5 115.5t-83.5 34.5q-58 0 -83.5 -34.5t-25.5 -115.5q0 -77 26.5 -114t82.5 -37q55 0 83 38.5zM235 585l-81 121h95
l43 -58l43 58h95l-73 -121h-122z" />
    <glyph glyph-name="ocircumflex" unicode="&#xf4;" horiz-adv-x="590" 
d="M102 53q-64 68 -64 202q0 140 63.5 204t192.5 64t194 -65.5t65 -202.5q0 -132 -67 -201t-192 -69q-128 0 -192 68zM377 142.5q28 38.5 28 112.5q0 81 -27.5 115.5t-83.5 34.5q-58 0 -83.5 -34.5t-25.5 -115.5q0 -77 26.5 -114t82.5 -37q55 0 83 38.5zM155 578l88 121h121
l87 -121h-99l-49 59l-49 -59h-99z" />
    <glyph glyph-name="uni1ED1" unicode="&#x1ed1;" horiz-adv-x="590" 
d="M102 53q-64 68 -64 202q0 140 63.5 204t192.5 64t194 -65.5t65 -202.5q0 -132 -67 -201t-192 -69q-128 0 -192 68zM377 142.5q28 38.5 28 112.5q0 81 -27.5 115.5t-83.5 34.5q-58 0 -83.5 -34.5t-25.5 -115.5q0 -77 26.5 -114t82.5 -37q55 0 83 38.5zM149 564l88 121h121
l87 -121h-99l-49 59l-49 -59h-99zM416 637l36 113h156l-118 -113h-74z" />
    <glyph glyph-name="uni1ED9" unicode="&#x1ed9;" horiz-adv-x="590" 
d="M102 53q-64 68 -64 202q0 140 63.5 204t192.5 64t194 -65.5t65 -202.5q0 -132 -67 -201t-192 -69q-128 0 -192 68zM377 142.5q28 38.5 28 112.5q0 81 -27.5 115.5t-83.5 34.5q-58 0 -83.5 -34.5t-25.5 -115.5q0 -77 26.5 -114t82.5 -37q55 0 83 38.5zM155 578l88 121h121
l87 -121h-99l-49 59l-49 -59h-99zM242 -150v100h108v-100h-108z" />
    <glyph glyph-name="uni1ED3" unicode="&#x1ed3;" horiz-adv-x="590" 
d="M102 53q-64 68 -64 202q0 140 63.5 204t192.5 64t194 -65.5t65 -202.5q0 -132 -67 -201t-192 -69q-128 0 -192 68zM377 142.5q28 38.5 28 112.5q0 81 -27.5 115.5t-83.5 34.5q-58 0 -83.5 -34.5t-25.5 -115.5q0 -77 26.5 -114t82.5 -37q55 0 83 38.5zM155 564l88 121h121
l87 -121h-99l-49 59l-49 -59h-99zM87 636l-97 111h132l47 -111h-82z" />
    <glyph glyph-name="uni1ED5" unicode="&#x1ed5;" horiz-adv-x="590" 
d="M102 53q-64 68 -64 202q0 140 63.5 204t192.5 64t194 -65.5t65 -202.5q0 -132 -67 -201t-192 -69q-128 0 -192 68zM377 142.5q28 38.5 28 112.5q0 81 -27.5 115.5t-83.5 34.5q-58 0 -83.5 -34.5t-25.5 -115.5q0 -77 26.5 -114t82.5 -37q55 0 83 38.5zM139 568l88 121h121
l87 -121h-99l-49 59l-49 -59h-99zM415 687q17 1 27 8t10 16q0 24 -42 24q-13 0 -30 -3v58q22 5 58 5q50 0 81 -19t31 -59q0 -28 -15 -45t-42 -18v-24h-78v57z" />
    <glyph glyph-name="uni1ED7" unicode="&#x1ed7;" horiz-adv-x="590" 
d="M102 53q-64 68 -64 202q0 140 63.5 204t192.5 64t194 -65.5t65 -202.5q0 -132 -67 -201t-192 -69q-128 0 -192 68zM377 142.5q28 38.5 28 112.5q0 81 -27.5 115.5t-83.5 34.5q-58 0 -83.5 -34.5t-25.5 -115.5q0 -77 26.5 -114t82.5 -37q55 0 83 38.5zM154 552l88 121h121
l87 -121h-99l-49 59l-49 -59h-99zM117 716q-2 38 12 70t40.5 51t60.5 19q25 0 45.5 -9.5t46.5 -27.5q19 -14 32.5 -20.5t27.5 -6.5q37 0 33 59h73q2 -63 -30.5 -100.5t-81.5 -37.5q-34 0 -56.5 11t-48.5 30q-18 13 -27 18t-20 5q-20 0 -30 -18t-8 -43h-69z" />
    <glyph glyph-name="uni020D" unicode="&#x20d;" horiz-adv-x="590" 
d="M102 53q-64 68 -64 202q0 140 63.5 204t192.5 64t194 -65.5t65 -202.5q0 -132 -67 -201t-192 -69q-128 0 -192 68zM377 142.5q28 38.5 28 112.5q0 81 -27.5 115.5t-83.5 34.5q-58 0 -83.5 -34.5t-25.5 -115.5q0 -77 26.5 -114t82.5 -37q55 0 83 38.5zM186 572l-111 124
h146l46 -124h-81zM370 572l-111 124h146l46 -124h-81z" />
    <glyph glyph-name="odieresis" unicode="&#xf6;" horiz-adv-x="590" 
d="M102 53q-64 68 -64 202q0 140 63.5 204t192.5 64t194 -65.5t65 -202.5q0 -132 -67 -201t-192 -69q-128 0 -192 68zM377 142.5q28 38.5 28 112.5q0 81 -27.5 115.5t-83.5 34.5q-58 0 -83.5 -34.5t-25.5 -115.5q0 -77 26.5 -114t82.5 -37q55 0 83 38.5zM147 579v100h128
v-100h-128zM330 579v100h129v-100h-129z" />
    <glyph glyph-name="uni022B" unicode="&#x22b;" horiz-adv-x="590" 
d="M102 53q-64 68 -64 202q0 140 63.5 204t192.5 64t194 -65.5t65 -202.5q0 -132 -67 -201t-192 -69q-128 0 -192 68zM377 142.5q28 38.5 28 112.5q0 81 -27.5 115.5t-83.5 34.5q-58 0 -83.5 -34.5t-25.5 -115.5q0 -77 26.5 -114t82.5 -37q55 0 83 38.5zM147 579v100h128
v-100h-128zM330 579v100h129v-100h-129zM154 732v95h276v-95h-276z" />
    <glyph glyph-name="uni0231" unicode="&#x231;" horiz-adv-x="590" 
d="M102 53q-64 68 -64 202q0 140 63.5 204t192.5 64t194 -65.5t65 -202.5q0 -132 -67 -201t-192 -69q-128 0 -192 68zM377 142.5q28 38.5 28 112.5q0 81 -27.5 115.5t-83.5 34.5q-58 0 -83.5 -34.5t-25.5 -115.5q0 -77 26.5 -114t82.5 -37q55 0 83 38.5zM226 572v100h121
v-100h-121zM154 732v95h276v-95h-276z" />
    <glyph glyph-name="uni1ECD" unicode="&#x1ecd;" horiz-adv-x="590" 
d="M102 53q-64 68 -64 202q0 140 63.5 204t192.5 64t194 -65.5t65 -202.5q0 -132 -67 -201t-192 -69q-128 0 -192 68zM377 142.5q28 38.5 28 112.5q0 81 -27.5 115.5t-83.5 34.5q-58 0 -83.5 -34.5t-25.5 -115.5q0 -77 26.5 -114t82.5 -37q55 0 83 38.5zM242 -150v100h108
v-100h-108z" />
    <glyph glyph-name="ograve" unicode="&#xf2;" horiz-adv-x="590" 
d="M102 53q-64 68 -64 202q0 140 63.5 204t192.5 64t194 -65.5t65 -202.5q0 -132 -67 -201t-192 -69q-128 0 -192 68zM377 142.5q28 38.5 28 112.5q0 81 -27.5 115.5t-83.5 34.5q-58 0 -83.5 -34.5t-25.5 -115.5q0 -77 26.5 -114t82.5 -37q55 0 83 38.5zM258 572l-111 124
h146l46 -124h-81z" />
    <glyph glyph-name="uni1ECF" unicode="&#x1ecf;" horiz-adv-x="590" 
d="M102 53q-64 68 -64 202q0 140 63.5 204t192.5 64t194 -65.5t65 -202.5q0 -132 -67 -201t-192 -69q-128 0 -192 68zM377 142.5q28 38.5 28 112.5q0 81 -27.5 115.5t-83.5 34.5q-58 0 -83.5 -34.5t-25.5 -115.5q0 -77 26.5 -114t82.5 -37q55 0 83 38.5zM263 620q17 1 27 8
t10 16q0 24 -42 24q-13 0 -30 -3v58q22 5 58 5q50 0 81 -19t31 -59q0 -28 -15 -45t-42 -18v-24h-78v57z" />
    <glyph glyph-name="ohorn" unicode="&#x1a1;" horiz-adv-x="590" 
d="M502 442q51 -64 51 -187q0 -132 -67 -201t-192 -69q-128 0 -192 68t-64 202q0 140 63.5 204t192.5 64q68 0 117 -18q28 2 45 15t17 33v37h91v-56q0 -64 -62 -92zM377 142.5q28 38.5 28 112.5q0 81 -27.5 115.5t-83.5 34.5q-58 0 -83.5 -34.5t-25.5 -115.5
q0 -77 26.5 -114t82.5 -37q55 0 83 38.5z" />
    <glyph glyph-name="uni1EDB" unicode="&#x1edb;" horiz-adv-x="590" 
d="M502 442q51 -64 51 -187q0 -132 -67 -201t-192 -69q-128 0 -192 68t-64 202q0 140 63.5 204t192.5 64q68 0 117 -18q28 2 45 15t17 33v37h91v-56q0 -64 -62 -92zM377 142.5q28 38.5 28 112.5q0 81 -27.5 115.5t-83.5 34.5q-58 0 -83.5 -34.5t-25.5 -115.5
q0 -77 26.5 -114t82.5 -37q55 0 83 38.5zM249 572l47 124h146l-111 -124h-82z" />
    <glyph glyph-name="uni1EE3" unicode="&#x1ee3;" horiz-adv-x="590" 
d="M502 442q51 -64 51 -187q0 -132 -67 -201t-192 -69q-128 0 -192 68t-64 202q0 140 63.5 204t192.5 64q68 0 117 -18q28 2 45 15t17 33v37h91v-56q0 -64 -62 -92zM377 142.5q28 38.5 28 112.5q0 81 -27.5 115.5t-83.5 34.5q-58 0 -83.5 -34.5t-25.5 -115.5
q0 -77 26.5 -114t82.5 -37q55 0 83 38.5zM242 -150v100h108v-100h-108z" />
    <glyph glyph-name="uni1EDD" unicode="&#x1edd;" horiz-adv-x="590" 
d="M502 442q51 -64 51 -187q0 -132 -67 -201t-192 -69q-128 0 -192 68t-64 202q0 140 63.5 204t192.5 64q68 0 117 -18q28 2 45 15t17 33v37h91v-56q0 -64 -62 -92zM377 142.5q28 38.5 28 112.5q0 81 -27.5 115.5t-83.5 34.5q-58 0 -83.5 -34.5t-25.5 -115.5
q0 -77 26.5 -114t82.5 -37q55 0 83 38.5zM258 572l-111 124h146l46 -124h-81z" />
    <glyph glyph-name="uni1EDF" unicode="&#x1edf;" horiz-adv-x="590" 
d="M502 442q51 -64 51 -187q0 -132 -67 -201t-192 -69q-128 0 -192 68t-64 202q0 140 63.5 204t192.5 64q68 0 117 -18q28 2 45 15t17 33v37h91v-56q0 -64 -62 -92zM377 142.5q28 38.5 28 112.5q0 81 -27.5 115.5t-83.5 34.5q-58 0 -83.5 -34.5t-25.5 -115.5
q0 -77 26.5 -114t82.5 -37q55 0 83 38.5zM263 620q17 1 27 8t10 16q0 24 -42 24q-13 0 -30 -3v58q22 5 58 5q50 0 81 -19t31 -59q0 -28 -15 -45t-42 -18v-24h-78v57z" />
    <glyph glyph-name="uni1EE1" unicode="&#x1ee1;" horiz-adv-x="590" 
d="M502 442q51 -64 51 -187q0 -132 -67 -201t-192 -69q-128 0 -192 68t-64 202q0 140 63.5 204t192.5 64q68 0 117 -18q28 2 45 15t17 33v37h91v-56q0 -64 -62 -92zM377 142.5q28 38.5 28 112.5q0 81 -27.5 115.5t-83.5 34.5q-58 0 -83.5 -34.5t-25.5 -115.5
q0 -77 26.5 -114t82.5 -37q55 0 83 38.5zM113 571q-2 38 12 70t40.5 51t60.5 19q25 0 45.5 -9.5t46.5 -27.5q19 -14 32.5 -20.5t27.5 -6.5q37 0 33 59h73q2 -63 -30.5 -100.5t-81.5 -37.5q-34 0 -56.5 11t-48.5 30q-18 13 -27 18t-20 5q-20 0 -30 -18t-8 -43h-69z" />
    <glyph glyph-name="ohungarumlaut" unicode="&#x151;" horiz-adv-x="590" 
d="M102 53q-64 68 -64 202q0 140 63.5 204t192.5 64t194 -65.5t65 -202.5q0 -132 -67 -201t-192 -69q-128 0 -192 68zM377 142.5q28 38.5 28 112.5q0 81 -27.5 115.5t-83.5 34.5q-58 0 -83.5 -34.5t-25.5 -115.5q0 -77 26.5 -114t82.5 -37q55 0 83 38.5zM183 579l61 117h104
l-90 -117h-75zM325 579l60 117h104l-90 -117h-74z" />
    <glyph glyph-name="uni020F" unicode="&#x20f;" horiz-adv-x="590" 
d="M102 53q-64 68 -64 202q0 140 63.5 204t192.5 64t194 -65.5t65 -202.5q0 -132 -67 -201t-192 -69q-128 0 -192 68zM377 142.5q28 38.5 28 112.5q0 81 -27.5 115.5t-83.5 34.5q-58 0 -83.5 -34.5t-25.5 -115.5q0 -77 26.5 -114t82.5 -37q55 0 83 38.5zM402.5 643
q37.5 -36 44.5 -97h-84q-21 58 -67 58q-26 0 -43 -17t-25 -41h-83q24 133 151 133q69 0 106.5 -36z" />
    <glyph glyph-name="omacron" unicode="&#x14d;" horiz-adv-x="590" 
d="M102 53q-64 68 -64 202q0 140 63.5 204t192.5 64t194 -65.5t65 -202.5q0 -132 -67 -201t-192 -69q-128 0 -192 68zM377 142.5q28 38.5 28 112.5q0 81 -27.5 115.5t-83.5 34.5q-58 0 -83.5 -34.5t-25.5 -115.5q0 -77 26.5 -114t82.5 -37q55 0 83 38.5zM154 573v95h276v-95
h-276z" />
    <glyph glyph-name="uni1E53" unicode="&#x1e53;" horiz-adv-x="590" 
d="M102 53q-64 68 -64 202q0 140 63.5 204t192.5 64t194 -65.5t65 -202.5q0 -132 -67 -201t-192 -69q-128 0 -192 68zM377 142.5q28 38.5 28 112.5q0 81 -27.5 115.5t-83.5 34.5q-58 0 -83.5 -34.5t-25.5 -115.5q0 -77 26.5 -114t82.5 -37q55 0 83 38.5zM154 573v95h276v-95
h-276zM249 713l47 124h146l-111 -124h-82z" />
    <glyph glyph-name="uni1E51" unicode="&#x1e51;" horiz-adv-x="590" 
d="M102 53q-64 68 -64 202q0 140 63.5 204t192.5 64t194 -65.5t65 -202.5q0 -132 -67 -201t-192 -69q-128 0 -192 68zM377 142.5q28 38.5 28 112.5q0 81 -27.5 115.5t-83.5 34.5q-58 0 -83.5 -34.5t-25.5 -115.5q0 -77 26.5 -114t82.5 -37q55 0 83 38.5zM154 573v95h276v-95
h-276zM258 713l-111 124h146l46 -124h-81z" />
    <glyph glyph-name="uni01EB" unicode="&#x1eb;" horiz-adv-x="590" 
d="M515 92.5q-38 -63.5 -110 -89.5l11 -3q-44 -18 -70.5 -38t-26.5 -39q0 -20 9 -28t26 -8q29 0 65 34v-85q-19 -11 -39.5 -17.5t-51.5 -6.5q-65 0 -96 24t-31 72q0 44 50 79q-106 11 -159.5 78.5t-53.5 189.5q0 140 63.5 204t192.5 64t194 -65.5t65 -202.5
q0 -99 -38 -162.5zM211.5 141q26.5 -37 82.5 -37q55 0 83 38.5t28 112.5q0 81 -27.5 115.5t-83.5 34.5q-58 0 -83.5 -34.5t-25.5 -115.5q0 -77 26.5 -114z" />
    <glyph glyph-name="oslash" unicode="&#xf8;" horiz-adv-x="601" 
d="M515 422q38 -64 38 -167q0 -132 -67 -201t-192 -69q-78 0 -131 25l-9 -10h-135l65 76q-46 65 -46 179q0 140 63.5 204t192.5 64q88 0 146 -30l5 6h136zM189 199l164 193q-23 13 -59 13q-58 0 -83.5 -34.5t-25.5 -115.5q0 -33 4 -56zM403 291l-154 -179q17 -8 45 -8
q55 0 83 38.5t28 112.5q0 14 -2 36z" />
    <glyph glyph-name="oslashacute" unicode="&#x1ff;" horiz-adv-x="601" 
d="M515 422q38 -64 38 -167q0 -132 -67 -201t-192 -69q-78 0 -131 25l-9 -10h-135l65 76q-46 65 -46 179q0 140 63.5 204t192.5 64q88 0 146 -30l5 6h136zM189 199l164 193q-23 13 -59 13q-58 0 -83.5 -34.5t-25.5 -115.5q0 -33 4 -56zM403 291l-154 -179q17 -8 45 -8
q55 0 83 38.5t28 112.5q0 14 -2 36zM254 551l47 124h146l-111 -124h-82z" />
    <glyph glyph-name="otilde" unicode="&#xf5;" horiz-adv-x="590" 
d="M102 53q-64 68 -64 202q0 140 63.5 204t192.5 64t194 -65.5t65 -202.5q0 -132 -67 -201t-192 -69q-128 0 -192 68zM377 142.5q28 38.5 28 112.5q0 81 -27.5 115.5t-83.5 34.5q-58 0 -83.5 -34.5t-25.5 -115.5q0 -77 26.5 -114t82.5 -37q55 0 83 38.5zM118 566
q-2 38 12 70t40.5 51t60.5 19q25 0 45.5 -9.5t46.5 -27.5q19 -14 32.5 -20.5t27.5 -6.5q37 0 33 59h73q2 -63 -30.5 -100.5t-81.5 -37.5q-34 0 -56.5 11t-48.5 30q-18 13 -27 18t-20 5q-20 0 -30 -18t-8 -43h-69z" />
    <glyph glyph-name="uni1E4D" unicode="&#x1e4d;" horiz-adv-x="590" 
d="M102 53q-64 68 -64 202q0 140 63.5 204t192.5 64t194 -65.5t65 -202.5q0 -132 -67 -201t-192 -69q-128 0 -192 68zM377 142.5q28 38.5 28 112.5q0 81 -27.5 115.5t-83.5 34.5q-58 0 -83.5 -34.5t-25.5 -115.5q0 -77 26.5 -114t82.5 -37q55 0 83 38.5zM118 566
q-2 38 12 70t40.5 51t60.5 19q25 0 45.5 -9.5t46.5 -27.5q19 -14 32.5 -20.5t27.5 -6.5q37 0 33 59h73q2 -63 -30.5 -100.5t-81.5 -37.5q-34 0 -56.5 11t-48.5 30q-18 13 -27 18t-20 5q-20 0 -30 -18t-8 -43h-69zM249 764l47 124h146l-111 -124h-82z" />
    <glyph glyph-name="uni1E4F" unicode="&#x1e4f;" horiz-adv-x="590" 
d="M102 53q-64 68 -64 202q0 140 63.5 204t192.5 64t194 -65.5t65 -202.5q0 -132 -67 -201t-192 -69q-128 0 -192 68zM377 142.5q28 38.5 28 112.5q0 81 -27.5 115.5t-83.5 34.5q-58 0 -83.5 -34.5t-25.5 -115.5q0 -77 26.5 -114t82.5 -37q55 0 83 38.5zM118 566
q-2 38 12 70t40.5 51t60.5 19q25 0 45.5 -9.5t46.5 -27.5q19 -14 32.5 -20.5t27.5 -6.5q37 0 33 59h73q2 -63 -30.5 -100.5t-81.5 -37.5q-34 0 -56.5 11t-48.5 30q-18 13 -27 18t-20 5q-20 0 -30 -18t-8 -43h-69zM147 771v100h128v-100h-128zM330 771v100h129v-100h-129z
" />
    <glyph glyph-name="uni022D" unicode="&#x22d;" horiz-adv-x="590" 
d="M102 53q-64 68 -64 202q0 140 63.5 204t192.5 64t194 -65.5t65 -202.5q0 -132 -67 -201t-192 -69q-128 0 -192 68zM377 142.5q28 38.5 28 112.5q0 81 -27.5 115.5t-83.5 34.5q-58 0 -83.5 -34.5t-25.5 -115.5q0 -77 26.5 -114t82.5 -37q55 0 83 38.5zM118 566
q-2 38 12 70t40.5 51t60.5 19q25 0 45.5 -9.5t46.5 -27.5q19 -14 32.5 -20.5t27.5 -6.5q37 0 33 59h73q2 -63 -30.5 -100.5t-81.5 -37.5q-34 0 -56.5 11t-48.5 30q-18 13 -27 18t-20 5q-20 0 -30 -18t-8 -43h-69zM154 765v95h276v-95h-276z" />
    <glyph glyph-name="oe" unicode="&#x153;" horiz-adv-x="931" 
d="M893 214h-334q19 -105 141 -105q37 0 72.5 10.5t75.5 27.5v-128q-82 -34 -184 -34q-55 0 -101.5 16.5t-80.5 48.5q-67 -65 -188 -65q-128 0 -192 68t-64 202q0 140 63.5 204t192.5 64q125 0 190 -61q64 61 175 61q237 0 234 -309zM558 309h187q-7 54 -28.5 77t-63.5 23
q-80 0 -95 -100zM377 142.5q28 38.5 28 112.5q0 81 -27.5 115.5t-83.5 34.5q-58 0 -83.5 -34.5t-25.5 -115.5q0 -77 26.5 -114t82.5 -37q55 0 83 38.5z" />
    <glyph glyph-name="p" unicode="p" horiz-adv-x="601" 
d="M496 459.5q67 -63.5 67 -211.5q0 -119 -60 -191t-164 -72q-76 0 -127 27v-193h-146v580q0 61 67.5 92t173.5 32q122 0 189 -63.5zM385 139q29 34 29 114q0 72 -25.5 108.5t-87.5 36.5q-89 0 -89 -34v-238q18 -11 40 -16t43 -5q61 0 90 34z" />
    <glyph glyph-name="thorn" unicode="&#xfe;" horiz-adv-x="595" 
d="M557 234q0 -75 -27 -133t-77.5 -90.5t-119.5 -32.5q-70 0 -119 26v-189h-148v882h148v-199q53 8 94 8q249 0 249 -272zM380.5 131q28.5 33 28.5 108q0 70 -24.5 106t-82.5 36q-26 0 -51.5 -6t-36.5 -17v-239q35 -21 82 -21q56 0 84.5 33z" />
    <glyph glyph-name="q" unicode="q" horiz-adv-x="601" 
d="M535 379v-574h-146v210q-46 -30 -120 -30q-111 0 -171 67t-60 191q0 149 71 213t199 64q227 0 227 -141zM218.5 140.5q32.5 -35.5 87.5 -35.5q48 0 83 21v224q0 22 -24 34t-59 12q-63 0 -91.5 -37.5t-28.5 -106.5q0 -76 32.5 -111.5z" />
    <glyph glyph-name="r" unicode="r" horiz-adv-x="428" 
d="M66 453q15 13 52.5 29t84 27.5t89.5 11.5q83 0 115 -25v-109q-40 9 -115 9q-47 0 -77 -5v-391h-149v453z" />
    <glyph glyph-name="racute" unicode="&#x155;" horiz-adv-x="428" 
d="M66 453q15 13 52.5 29t84 27.5t89.5 11.5q83 0 115 -25v-109q-40 9 -115 9q-47 0 -77 -5v-391h-149v453zM153 565l47 124h146l-111 -124h-82z" />
    <glyph glyph-name="rcaron" unicode="&#x159;" horiz-adv-x="428" 
d="M66 453q15 13 52.5 29t84 27.5t89.5 11.5q83 0 115 -25v-109q-40 9 -115 9q-47 0 -77 -5v-391h-149v453zM139 578l-81 121h95l43 -58l43 58h95l-73 -121h-122z" />
    <glyph glyph-name="rcommaaccent" unicode="&#x157;" horiz-adv-x="428" 
d="M66 453q15 13 52.5 29t84 27.5t89.5 11.5q83 0 115 -25v-109q-40 9 -115 9q-47 0 -77 -5v-391h-149v453zM43 -125q23 6 31 24t8 51h112q2 -64 -39 -103t-112 -41v69z" />
    <glyph glyph-name="uni0211" unicode="&#x211;" horiz-adv-x="428" 
d="M66 453q15 13 52.5 29t84 27.5t89.5 11.5q83 0 115 -25v-109q-40 9 -115 9q-47 0 -77 -5v-391h-149v453zM90 565l-111 124h146l46 -124h-81zM274 565l-111 124h146l46 -124h-81z" />
    <glyph glyph-name="uni0213" unicode="&#x213;" horiz-adv-x="428" 
d="M66 453q15 13 52.5 29t84 27.5t89.5 11.5q83 0 115 -25v-109q-40 9 -115 9q-47 0 -77 -5v-391h-149v453zM306.5 636q37.5 -36 44.5 -97h-84q-21 58 -67 58q-26 0 -43 -17t-25 -41h-83q24 133 151 133q69 0 106.5 -36z" />
    <glyph glyph-name="uni1E5F" unicode="&#x1e5f;" horiz-adv-x="428" 
d="M66 453q15 13 52.5 29t84 27.5t89.5 11.5q83 0 115 -25v-109q-40 9 -115 9q-47 0 -77 -5v-391h-149v453zM-13 -144v95h276v-95h-276z" />
    <glyph glyph-name="s" unicode="s" horiz-adv-x="482" 
d="M132 -5.5q-36 9.5 -80 27.5v131q81 -61 170 -61q34 0 49.5 11.5t15.5 31.5q0 23 -25 34t-80 24q-58 12 -95.5 48t-37.5 105q0 59 30 97t75.5 55.5t94.5 17.5q60 0 97.5 -10.5t73.5 -32.5v-117q-51 28 -79 40t-65 12t-55 -11.5t-18 -32.5q0 -25 20 -36.5t64 -23.5
q50 -13 79 -25.5t52 -43t23 -85.5q-2 -86 -65 -125.5t-160 -39.5q-48 0 -84 9.5z" />
    <glyph glyph-name="sacute" unicode="&#x15b;" horiz-adv-x="482" 
d="M132 -5.5q-36 9.5 -80 27.5v131q81 -61 170 -61q34 0 49.5 11.5t15.5 31.5q0 23 -25 34t-80 24q-58 12 -95.5 48t-37.5 105q0 59 30 97t75.5 55.5t94.5 17.5q60 0 97.5 -10.5t73.5 -32.5v-117q-51 28 -79 40t-65 12t-55 -11.5t-18 -32.5q0 -25 20 -36.5t64 -23.5
q50 -13 79 -25.5t52 -43t23 -85.5q-2 -86 -65 -125.5t-160 -39.5q-48 0 -84 9.5zM192 565l47 124h146l-111 -124h-82z" />
    <glyph glyph-name="uni1E65" unicode="&#x1e65;" horiz-adv-x="482" 
d="M132 -5.5q-36 9.5 -80 27.5v131q81 -61 170 -61q34 0 49.5 11.5t15.5 31.5q0 23 -25 34t-80 24q-58 12 -95.5 48t-37.5 105q0 59 30 97t75.5 55.5t94.5 17.5q60 0 97.5 -10.5t73.5 -32.5v-117q-51 28 -79 40t-65 12t-55 -11.5t-18 -32.5q0 -25 20 -36.5t64 -23.5
q50 -13 79 -25.5t52 -43t23 -85.5q-2 -86 -65 -125.5t-160 -39.5q-48 0 -84 9.5zM192 565l47 124h146l-111 -124h-82zM202 741v100h121v-100h-121z" />
    <glyph glyph-name="scaron" unicode="&#x161;" horiz-adv-x="482" 
d="M132 -5.5q-36 9.5 -80 27.5v131q81 -61 170 -61q34 0 49.5 11.5t15.5 31.5q0 23 -25 34t-80 24q-58 12 -95.5 48t-37.5 105q0 59 30 97t75.5 55.5t94.5 17.5q60 0 97.5 -10.5t73.5 -32.5v-117q-51 28 -79 40t-65 12t-55 -11.5t-18 -32.5q0 -25 20 -36.5t64 -23.5
q50 -13 79 -25.5t52 -43t23 -85.5q-2 -86 -65 -125.5t-160 -39.5q-48 0 -84 9.5zM178 578l-81 121h95l43 -58l43 58h95l-73 -121h-122z" />
    <glyph glyph-name="uni1E67" unicode="&#x1e67;" horiz-adv-x="482" 
d="M132 -5.5q-36 9.5 -80 27.5v131q81 -61 170 -61q34 0 49.5 11.5t15.5 31.5q0 23 -25 34t-80 24q-58 12 -95.5 48t-37.5 105q0 59 30 97t75.5 55.5t94.5 17.5q60 0 97.5 -10.5t73.5 -32.5v-117q-51 28 -79 40t-65 12t-55 -11.5t-18 -32.5q0 -25 20 -36.5t64 -23.5
q50 -13 79 -25.5t52 -43t23 -85.5q-2 -86 -65 -125.5t-160 -39.5q-48 0 -84 9.5zM178 578l-81 121h95l43 -58l43 58h95l-73 -121h-122zM169 746v100h121v-100h-121z" />
    <glyph glyph-name="scedilla" unicode="&#x15f;" horiz-adv-x="482" 
d="M403.5 48.5q-36.5 -38.5 -97.5 -53.5h12l-52 -128h-134l83 118q-47 0 -83 9.5t-80 27.5v131q81 -61 170 -61q34 0 49.5 11.5t15.5 31.5q0 23 -25 34t-80 24q-58 12 -95.5 48t-37.5 105q0 59 30 97t75.5 55.5t94.5 17.5q60 0 97.5 -10.5t73.5 -32.5v-117q-51 28 -79 40
t-65 12t-55 -11.5t-18 -32.5q0 -25 20 -36.5t64 -23.5q50 -13 79 -25.5t52 -43t23 -85.5q-1 -63 -37.5 -101.5z" />
    <glyph glyph-name="scircumflex" unicode="&#x15d;" horiz-adv-x="482" 
d="M132 -5.5q-36 9.5 -80 27.5v131q81 -61 170 -61q34 0 49.5 11.5t15.5 31.5q0 23 -25 34t-80 24q-58 12 -95.5 48t-37.5 105q0 59 30 97t75.5 55.5t94.5 17.5q60 0 97.5 -10.5t73.5 -32.5v-117q-51 28 -79 40t-65 12t-55 -11.5t-18 -32.5q0 -25 20 -36.5t64 -23.5
q50 -13 79 -25.5t52 -43t23 -85.5q-2 -86 -65 -125.5t-160 -39.5q-48 0 -84 9.5zM98 571l88 121h121l87 -121h-99l-49 59l-49 -59h-99z" />
    <glyph glyph-name="scommaaccent" unicode="&#x219;" horiz-adv-x="482" 
d="M132 -5.5q-36 9.5 -80 27.5v131q81 -61 170 -61q34 0 49.5 11.5t15.5 31.5q0 23 -25 34t-80 24q-58 12 -95.5 48t-37.5 105q0 59 30 97t75.5 55.5t94.5 17.5q60 0 97.5 -10.5t73.5 -32.5v-117q-51 28 -79 40t-65 12t-55 -11.5t-18 -32.5q0 -25 20 -36.5t64 -23.5
q50 -13 79 -25.5t52 -43t23 -85.5q-2 -86 -65 -125.5t-160 -39.5q-48 0 -84 9.5zM140 -125q23 6 31 24t8 51h112q2 -64 -39 -103t-112 -41v69z" />
    <glyph glyph-name="uni1E61" unicode="&#x1e61;" horiz-adv-x="482" 
d="M132 -5.5q-36 9.5 -80 27.5v131q81 -61 170 -61q34 0 49.5 11.5t15.5 31.5q0 23 -25 34t-80 24q-58 12 -95.5 48t-37.5 105q0 59 30 97t75.5 55.5t94.5 17.5q60 0 97.5 -10.5t73.5 -32.5v-117q-51 28 -79 40t-65 12t-55 -11.5t-18 -32.5q0 -25 20 -36.5t64 -23.5
q50 -13 79 -25.5t52 -43t23 -85.5q-2 -86 -65 -125.5t-160 -39.5q-48 0 -84 9.5zM169 565v100h121v-100h-121z" />
    <glyph glyph-name="uni1E63" unicode="&#x1e63;" horiz-adv-x="482" 
d="M132 -5.5q-36 9.5 -80 27.5v131q81 -61 170 -61q34 0 49.5 11.5t15.5 31.5q0 23 -25 34t-80 24q-58 12 -95.5 48t-37.5 105q0 59 30 97t75.5 55.5t94.5 17.5q60 0 97.5 -10.5t73.5 -32.5v-117q-51 28 -79 40t-65 12t-55 -11.5t-18 -32.5q0 -25 20 -36.5t64 -23.5
q50 -13 79 -25.5t52 -43t23 -85.5q-2 -86 -65 -125.5t-160 -39.5q-48 0 -84 9.5zM169 -150v100h108v-100h-108z" />
    <glyph glyph-name="uni1E69" unicode="&#x1e69;" horiz-adv-x="482" 
d="M132 -5.5q-36 9.5 -80 27.5v131q81 -61 170 -61q34 0 49.5 11.5t15.5 31.5q0 23 -25 34t-80 24q-58 12 -95.5 48t-37.5 105q0 59 30 97t75.5 55.5t94.5 17.5q60 0 97.5 -10.5t73.5 -32.5v-117q-51 28 -79 40t-65 12t-55 -11.5t-18 -32.5q0 -25 20 -36.5t64 -23.5
q50 -13 79 -25.5t52 -43t23 -85.5q-2 -86 -65 -125.5t-160 -39.5q-48 0 -84 9.5zM169 -150v100h108v-100h-108zM169 565v100h121v-100h-121z" />
    <glyph glyph-name="germandbls" unicode="&#xdf;" horiz-adv-x="635" 
d="M66 436q0 75 28 134t84 93t135 34q76 0 134.5 -21t90.5 -58t32 -83q0 -60 -38.5 -98.5t-80.5 -51.5q59 -18 102.5 -65t43.5 -132q0 -89 -54 -145.5t-155 -57.5q-53 -2 -114 16v123q47 -26 91 -26q39 0 60.5 24.5t21.5 71.5q0 53 -36.5 78.5t-88.5 26.5v120q93 0 93 80
q0 35 -25.5 55t-67.5 20q-51 0 -78.5 -35t-27.5 -99v-440h-150v436z" />
    <glyph glyph-name="t" unicode="t" horiz-adv-x="413" 
d="M142.5 21q-43.5 41 -43.5 118v253h-74v114h74v139h156v-139h111v-114h-111v-234q0 -26 11 -38.5t37 -12.5q16 0 33 5.5t30 15.5v-127q-38 -21 -93 -21q-87 0 -130.5 41z" />
    <glyph glyph-name="tbar" unicode="&#x167;" horiz-adv-x="391" 
d="M142.5 34q-44.5 41 -44.5 124v65h-60v87h60v89h-74v100h74v146h142v-146h111v-100h-111v-89h98v-87h-98v-85q0 -19 11 -29t32 -10q34 0 68 21v-107q-39 -20 -90 -20q-74 0 -118.5 41z" />
    <glyph glyph-name="tcaron" unicode="&#x165;" horiz-adv-x="417" 
d="M142.5 21q-43.5 41 -43.5 118v253h-74v114h74v139h156v-139h111v-114h-111v-234q0 -26 11 -38.5t37 -12.5q16 0 33 5.5t30 15.5v-127q-38 -21 -93 -21q-87 0 -130.5 41zM299 562l74 196h122l-92 -196h-104z" />
    <glyph glyph-name="uni0163" unicode="&#x163;" horiz-adv-x="413" 
d="M255 392v-234q0 -26 11 -38.5t37 -12.5q16 0 33 5.5t30 15.5v-127q-32 -17 -73 -20l-46 -114h-134l86 123q-100 30 -100 149v253h-74v114h74v139h156v-139h111v-114h-111z" />
    <glyph glyph-name="uni1E97" unicode="&#x1e97;" horiz-adv-x="413" 
d="M142.5 21q-43.5 41 -43.5 118v253h-74v114h74v139h156v-139h111v-114h-111v-234q0 -26 11 -38.5t37 -12.5q16 0 33 5.5t30 15.5v-127q-38 -21 -93 -21q-87 0 -130.5 41zM20 698v100h128v-100h-128zM203 698v100h129v-100h-129z" />
    <glyph glyph-name="uni1E6D" unicode="&#x1e6d;" horiz-adv-x="413" 
d="M142.5 21q-43.5 41 -43.5 118v253h-74v114h74v139h156v-139h111v-114h-111v-234q0 -26 11 -38.5t37 -12.5q16 0 33 5.5t30 15.5v-127q-38 -21 -93 -21q-87 0 -130.5 41zM150 -150v100h108v-100h-108z" />
    <glyph glyph-name="uni1E6F" unicode="&#x1e6f;" horiz-adv-x="413" 
d="M142.5 21q-43.5 41 -43.5 118v253h-74v114h74v139h156v-139h111v-114h-111v-234q0 -26 11 -38.5t37 -12.5q16 0 33 5.5t30 15.5v-127q-38 -21 -93 -21q-87 0 -130.5 41zM65 -144v95h276v-95h-276z" />
    <glyph glyph-name="u" unicode="u" horiz-adv-x="601" 
d="M129.5 37q-63.5 52 -63.5 156v313h149v-301q0 -48 21.5 -71.5t68.5 -23.5t68.5 23.5t21.5 71.5v301h140v-313q0 -105 -60.5 -156.5t-170.5 -51.5q-111 0 -174.5 52z" />
    <glyph glyph-name="uacute" unicode="&#xfa;" horiz-adv-x="601" 
d="M129.5 37q-63.5 52 -63.5 156v313h149v-301q0 -48 21.5 -71.5t68.5 -23.5t68.5 23.5t21.5 71.5v301h140v-313q0 -105 -60.5 -156.5t-170.5 -51.5q-111 0 -174.5 52zM261 565l47 124h146l-111 -124h-82z" />
    <glyph glyph-name="ubreve" unicode="&#x16d;" horiz-adv-x="601" 
d="M129.5 37q-63.5 52 -63.5 156v313h149v-301q0 -48 21.5 -71.5t68.5 -23.5t68.5 23.5t21.5 71.5v301h140v-313q0 -105 -60.5 -156.5t-170.5 -51.5q-111 0 -174.5 52zM157 685h83q8 -24 25 -41t43 -17q46 0 67 58h84q-7 -61 -44.5 -97t-106.5 -36q-127 0 -151 133z" />
    <glyph glyph-name="uni01D4" unicode="&#x1d4;" horiz-adv-x="601" 
d="M129.5 37q-63.5 52 -63.5 156v313h149v-301q0 -48 21.5 -71.5t68.5 -23.5t68.5 23.5t21.5 71.5v301h140v-313q0 -105 -60.5 -156.5t-170.5 -51.5q-111 0 -174.5 52zM247 578l-81 121h95l43 -58l43 58h95l-73 -121h-122z" />
    <glyph glyph-name="ucircumflex" unicode="&#xfb;" horiz-adv-x="601" 
d="M129.5 37q-63.5 52 -63.5 156v313h149v-301q0 -48 21.5 -71.5t68.5 -23.5t68.5 23.5t21.5 71.5v301h140v-313q0 -105 -60.5 -156.5t-170.5 -51.5q-111 0 -174.5 52zM167 571l88 121h121l87 -121h-99l-49 59l-49 -59h-99z" />
    <glyph glyph-name="uni0215" unicode="&#x215;" horiz-adv-x="601" 
d="M129.5 37q-63.5 52 -63.5 156v313h149v-301q0 -48 21.5 -71.5t68.5 -23.5t68.5 23.5t21.5 71.5v301h140v-313q0 -105 -60.5 -156.5t-170.5 -51.5q-111 0 -174.5 52zM198 565l-111 124h146l46 -124h-81zM382 565l-111 124h146l46 -124h-81z" />
    <glyph glyph-name="udieresis" unicode="&#xfc;" horiz-adv-x="601" 
d="M129.5 37q-63.5 52 -63.5 156v313h149v-301q0 -48 21.5 -71.5t68.5 -23.5t68.5 23.5t21.5 71.5v301h140v-313q0 -105 -60.5 -156.5t-170.5 -51.5q-111 0 -174.5 52zM159 572v100h128v-100h-128zM342 572v100h129v-100h-129z" />
    <glyph glyph-name="uni1EE5" unicode="&#x1ee5;" horiz-adv-x="610" 
d="M142 48.5q-59 56.5 -59 171.5v279h142v-301q0 -48 20.5 -71.5t63.5 -23.5t63 23.5t20 71.5v301h142v-279q0 -115 -58.5 -171.5t-166.5 -56.5t-167 56.5zM255 -150v100h108v-100h-108z" />
    <glyph glyph-name="ugrave" unicode="&#xf9;" horiz-adv-x="601" 
d="M129.5 37q-63.5 52 -63.5 156v313h149v-301q0 -48 21.5 -71.5t68.5 -23.5t68.5 23.5t21.5 71.5v301h140v-313q0 -105 -60.5 -156.5t-170.5 -51.5q-111 0 -174.5 52zM270 565l-111 124h146l46 -124h-81z" />
    <glyph glyph-name="uni1EE7" unicode="&#x1ee7;" horiz-adv-x="610" 
d="M285 615q13 1 21 5.5t8 13.5q0 22 -35 22q-14 0 -30 -3v50q18 4 44 4q39 0 65.5 -18t26.5 -53q0 -26 -17 -38.5t-33 -15.5v-24h-50v57zM142 48.5q-59 56.5 -59 171.5v279h142v-301q0 -48 20.5 -71.5t63.5 -23.5t63 23.5t20 71.5v301h142v-279q0 -115 -58.5 -171.5
t-166.5 -56.5t-167 56.5z" />
    <glyph glyph-name="uhorn" unicode="&#x1b0;" horiz-adv-x="601" 
d="M650 591v-56q0 -88 -115 -107v-235q0 -105 -60.5 -156.5t-170.5 -51.5q-111 0 -174.5 52t-63.5 156v313h149v-301q0 -48 21.5 -71.5t68.5 -23.5t68.5 23.5t21.5 71.5v301h90q33 0 53.5 12.5t20.5 35.5v37h91z" />
    <glyph glyph-name="uni1EE9" unicode="&#x1ee9;" horiz-adv-x="601" 
d="M650 591v-56q0 -88 -115 -107v-235q0 -105 -60.5 -156.5t-170.5 -51.5q-111 0 -174.5 52t-63.5 156v313h149v-301q0 -48 21.5 -71.5t68.5 -23.5t68.5 23.5t21.5 71.5v301h90q33 0 53.5 12.5t20.5 35.5v37h91zM261 565l47 124h146l-111 -124h-82z" />
    <glyph glyph-name="uni1EF1" unicode="&#x1ef1;" horiz-adv-x="601" 
d="M650 591v-56q0 -88 -115 -107v-235q0 -105 -60.5 -156.5t-170.5 -51.5q-111 0 -174.5 52t-63.5 156v313h149v-301q0 -48 21.5 -71.5t68.5 -23.5t68.5 23.5t21.5 71.5v301h90q33 0 53.5 12.5t20.5 35.5v37h91zM247 -150v100h108v-100h-108z" />
    <glyph glyph-name="uni1EEB" unicode="&#x1eeb;" horiz-adv-x="601" 
d="M650 591v-56q0 -88 -115 -107v-235q0 -105 -60.5 -156.5t-170.5 -51.5q-111 0 -174.5 52t-63.5 156v313h149v-301q0 -48 21.5 -71.5t68.5 -23.5t68.5 23.5t21.5 71.5v301h90q33 0 53.5 12.5t20.5 35.5v37h91zM270 565l-111 124h146l46 -124h-81z" />
    <glyph glyph-name="uni1EED" unicode="&#x1eed;" horiz-adv-x="601" 
d="M650 591v-56q0 -88 -115 -107v-235q0 -105 -60.5 -156.5t-170.5 -51.5q-111 0 -174.5 52t-63.5 156v313h149v-301q0 -48 21.5 -71.5t68.5 -23.5t68.5 23.5t21.5 71.5v301h90q33 0 53.5 12.5t20.5 35.5v37h91zM275 613q17 1 27 8t10 16q0 24 -42 24q-13 0 -30 -3v58
q22 5 58 5q50 0 81 -19t31 -59q0 -28 -15 -45t-42 -18v-24h-78v57z" />
    <glyph glyph-name="uni1EEF" unicode="&#x1eef;" horiz-adv-x="601" 
d="M650 591v-56q0 -88 -115 -107v-235q0 -105 -60.5 -156.5t-170.5 -51.5q-111 0 -174.5 52t-63.5 156v313h149v-301q0 -48 21.5 -71.5t68.5 -23.5t68.5 23.5t21.5 71.5v301h90q33 0 53.5 12.5t20.5 35.5v37h91zM130 559q-2 38 12 70t40.5 51t60.5 19q25 0 45.5 -9.5
t46.5 -27.5q19 -14 32.5 -20.5t27.5 -6.5q37 0 33 59h73q2 -63 -30.5 -100.5t-81.5 -37.5q-34 0 -56.5 11t-48.5 30q-18 13 -27 18t-20 5q-20 0 -30 -18t-8 -43h-69z" />
    <glyph glyph-name="uhungarumlaut" unicode="&#x171;" horiz-adv-x="601" 
d="M129.5 37q-63.5 52 -63.5 156v313h149v-301q0 -48 21.5 -71.5t68.5 -23.5t68.5 23.5t21.5 71.5v301h140v-313q0 -105 -60.5 -156.5t-170.5 -51.5q-111 0 -174.5 52zM195 572l61 117h104l-90 -117h-75zM337 572l60 117h104l-90 -117h-74z" />
    <glyph glyph-name="uni0217" unicode="&#x217;" horiz-adv-x="601" 
d="M129.5 37q-63.5 52 -63.5 156v313h149v-301q0 -48 21.5 -71.5t68.5 -23.5t68.5 23.5t21.5 71.5v301h140v-313q0 -105 -60.5 -156.5t-170.5 -51.5q-111 0 -174.5 52zM414.5 636q37.5 -36 44.5 -97h-84q-21 58 -67 58q-26 0 -43 -17t-25 -41h-83q24 133 151 133
q69 0 106.5 -36z" />
    <glyph glyph-name="umacron" unicode="&#x16b;" horiz-adv-x="601" 
d="M129.5 37q-63.5 52 -63.5 156v313h149v-301q0 -48 21.5 -71.5t68.5 -23.5t68.5 23.5t21.5 71.5v301h140v-313q0 -105 -60.5 -156.5t-170.5 -51.5q-111 0 -174.5 52zM166 566v95h276v-95h-276z" />
    <glyph glyph-name="uni1E7B" unicode="&#x1e7b;" horiz-adv-x="601" 
d="M129.5 37q-63.5 52 -63.5 156v313h149v-301q0 -48 21.5 -71.5t68.5 -23.5t68.5 23.5t21.5 71.5v301h140v-313q0 -105 -60.5 -156.5t-170.5 -51.5q-111 0 -174.5 52zM166 566v95h276v-95h-276zM159 713v100h128v-100h-128zM342 713v100h129v-100h-129z" />
    <glyph glyph-name="uni021B" unicode="&#x21b;" horiz-adv-x="391" 
d="M142.5 34q-44.5 41 -44.5 124v241h-74v100h74v146h142v-146h111v-100h-111v-261q0 -19 11 -29t32 -10q34 0 68 21v-107q-39 -20 -90 -20q-74 0 -118.5 41zM150 -132q22 6 31 27t8 55h84q1 -41 -15.5 -73.5t-45 -50.5t-62.5 -20v62z" />
    <glyph glyph-name="uogonek" unicode="&#x173;" horiz-adv-x="601" 
d="M535 506v-313q0 -146 -118 -190l11 -3q-44 -18 -70.5 -38t-26.5 -39q0 -20 9 -28t26 -8q29 0 65 34v-85q-19 -11 -39.5 -17.5t-51.5 -6.5q-65 0 -96 24t-31 72q0 44 49 79q-92 9 -144 60.5t-52 145.5v313h149v-301q0 -48 21.5 -71.5t68.5 -23.5t68.5 23.5t21.5 71.5v301
h140z" />
    <glyph glyph-name="uring" unicode="&#x16f;" horiz-adv-x="601" 
d="M129.5 37q-63.5 52 -63.5 156v313h149v-301q0 -48 21.5 -71.5t68.5 -23.5t68.5 23.5t21.5 71.5v301h140v-313q0 -105 -60.5 -156.5t-170.5 -51.5q-111 0 -174.5 52zM219.5 573.5q-30.5 24.5 -30.5 70.5t30.5 70.5t88.5 24.5t88.5 -24.5t30.5 -70.5q0 -47 -30.5 -71
t-88.5 -24t-88.5 24.5zM345 615.5q11 8.5 11 28.5t-11 28t-37 8t-37 -8t-11 -28t11 -28.5t37 -8.5t37 8.5z" />
    <glyph glyph-name="utilde" unicode="&#x169;" horiz-adv-x="601" 
d="M129.5 37q-63.5 52 -63.5 156v313h149v-301q0 -48 21.5 -71.5t68.5 -23.5t68.5 23.5t21.5 71.5v301h140v-313q0 -105 -60.5 -156.5t-170.5 -51.5q-111 0 -174.5 52zM130 559q-2 38 12 70t40.5 51t60.5 19q25 0 45.5 -9.5t46.5 -27.5q19 -14 32.5 -20.5t27.5 -6.5
q37 0 33 59h73q2 -63 -30.5 -100.5t-81.5 -37.5q-34 0 -56.5 11t-48.5 30q-18 13 -27 18t-20 5q-20 0 -30 -18t-8 -43h-69z" />
    <glyph glyph-name="uni1E79" unicode="&#x1e79;" horiz-adv-x="601" 
d="M129.5 37q-63.5 52 -63.5 156v313h149v-301q0 -48 21.5 -71.5t68.5 -23.5t68.5 23.5t21.5 71.5v301h140v-313q0 -105 -60.5 -156.5t-170.5 -51.5q-111 0 -174.5 52zM130 559q-2 38 12 70t40.5 51t60.5 19q25 0 45.5 -9.5t46.5 -27.5q19 -14 32.5 -20.5t27.5 -6.5
q37 0 33 59h73q2 -63 -30.5 -100.5t-81.5 -37.5q-34 0 -56.5 11t-48.5 30q-18 13 -27 18t-20 5q-20 0 -30 -18t-8 -43h-69zM261 757l47 124h146l-111 -124h-82z" />
    <glyph glyph-name="v" unicode="v" horiz-adv-x="621" 
d="M439 506h157l-211 -506h-149l-211 506h161l134 -342z" />
    <glyph glyph-name="w" unicode="w" horiz-adv-x="827" 
d="M645 506h157l-168 -506h-135l-87 284l-83 -284h-135l-169 506h160l89 -322l84 322h110l87 -330z" />
    <glyph glyph-name="wacute" unicode="&#x1e83;" horiz-adv-x="827" 
d="M645 506h157l-168 -506h-135l-87 284l-83 -284h-135l-169 506h160l89 -322l84 322h110l87 -330zM367 551l47 124h146l-111 -124h-82z" />
    <glyph glyph-name="wcircumflex" unicode="&#x175;" horiz-adv-x="827" 
d="M645 506h157l-168 -506h-135l-87 284l-83 -284h-135l-169 506h160l89 -322l84 322h110l87 -330zM273 557l88 121h121l87 -121h-99l-49 59l-49 -59h-99z" />
    <glyph glyph-name="wdieresis" unicode="&#x1e85;" horiz-adv-x="827" 
d="M645 506h157l-168 -506h-135l-87 284l-83 -284h-135l-169 506h160l89 -322l84 322h110l87 -330zM265 558v100h128v-100h-128zM448 558v100h129v-100h-129z" />
    <glyph glyph-name="wgrave" unicode="&#x1e81;" horiz-adv-x="827" 
d="M645 506h157l-168 -506h-135l-87 284l-83 -284h-135l-169 506h160l89 -322l84 322h110l87 -330zM376 551l-111 124h146l46 -124h-81z" />
    <glyph glyph-name="x" unicode="x" horiz-adv-x="594" 
d="M572 506l-191 -250l183 -256h-176l-107 150l-103 -150h-157l190 248l-185 258h176l108 -151l104 151h158z" />
    <glyph glyph-name="y" unicode="y" horiz-adv-x="593" 
d="M569 506l-199 -514q-73 -188 -194 -188q-52 0 -90 18v121q30 -11 59 -11q30 0 50.5 17t32.5 56l-203 501h170l107 -332l107 332h160z" />
    <glyph glyph-name="yacute" unicode="&#xfd;" horiz-adv-x="593" 
d="M569 506l-199 -514q-73 -188 -194 -188q-52 0 -90 18v121q30 -11 59 -11q30 0 50.5 17t32.5 56l-203 501h170l107 -332l107 332h160zM251 551l47 124h146l-111 -124h-82z" />
    <glyph glyph-name="ycircumflex" unicode="&#x177;" horiz-adv-x="593" 
d="M569 506l-199 -514q-73 -188 -194 -188q-52 0 -90 18v121q30 -11 59 -11q30 0 50.5 17t32.5 56l-203 501h170l107 -332l107 332h160zM157 557l88 121h121l87 -121h-99l-49 59l-49 -59h-99z" />
    <glyph glyph-name="ydieresis" unicode="&#xff;" horiz-adv-x="593" 
d="M569 506l-199 -514q-73 -188 -194 -188q-52 0 -90 18v121q30 -11 59 -11q30 0 50.5 17t32.5 56l-203 501h170l107 -332l107 332h160zM149 558v100h128v-100h-128zM332 558v100h129v-100h-129z" />
    <glyph glyph-name="uni1E8F" unicode="&#x1e8f;" horiz-adv-x="593" 
d="M569 506l-199 -514q-73 -188 -194 -188q-52 0 -90 18v121q30 -11 59 -11q30 0 50.5 17t32.5 56l-203 501h170l107 -332l107 332h160zM228 551v100h121v-100h-121z" />
    <glyph glyph-name="uni1EF5" unicode="&#x1ef5;" horiz-adv-x="593" 
d="M569 506l-199 -514q-73 -188 -194 -188q-52 0 -90 18v121q30 -11 59 -11q30 0 50.5 17t32.5 56l-203 501h170l107 -332l107 332h160zM412 -150v100h108v-100h-108z" />
    <glyph glyph-name="ygrave" unicode="&#x1ef3;" horiz-adv-x="593" 
d="M569 506l-199 -514q-73 -188 -194 -188q-52 0 -90 18v121q30 -11 59 -11q30 0 50.5 17t32.5 56l-203 501h170l107 -332l107 332h160zM260 551l-111 124h146l46 -124h-81z" />
    <glyph glyph-name="uni1EF7" unicode="&#x1ef7;" horiz-adv-x="593" 
d="M569 506l-199 -514q-73 -188 -194 -188q-52 0 -90 18v121q30 -11 59 -11q30 0 50.5 17t32.5 56l-203 501h170l107 -332l107 332h160zM265 599q17 1 27 8t10 16q0 24 -42 24q-13 0 -30 -3v58q22 5 58 5q50 0 81 -19t31 -59q0 -28 -15 -45t-42 -18v-24h-78v57z" />
    <glyph glyph-name="uni0233" unicode="&#x233;" horiz-adv-x="593" 
d="M569 506l-199 -514q-73 -188 -194 -188q-52 0 -90 18v121q30 -11 59 -11q30 0 50.5 17t32.5 56l-203 501h170l107 -332l107 332h160zM156 552v95h276v-95h-276z" />
    <glyph glyph-name="uni1EF9" unicode="&#x1ef9;" horiz-adv-x="593" 
d="M569 506l-199 -514q-73 -188 -194 -188q-52 0 -90 18v121q30 -11 59 -11q30 0 50.5 17t32.5 56l-203 501h170l107 -332l107 332h160zM120 545q-2 38 12 70t40.5 51t60.5 19q25 0 45.5 -9.5t46.5 -27.5q19 -14 32.5 -20.5t27.5 -6.5q37 0 33 59h73q2 -63 -30.5 -100.5
t-81.5 -37.5q-34 0 -56.5 11t-48.5 30q-18 13 -27 18t-20 5q-20 0 -30 -18t-8 -43h-69z" />
    <glyph glyph-name="z" unicode="z" horiz-adv-x="492" 
d="M447 506v-116l-221 -271h221v-119h-402v118l245 276h-239v112h396z" />
    <glyph glyph-name="zacute" unicode="&#x17a;" horiz-adv-x="492" 
d="M447 506v-116l-221 -271h221v-119h-402v118l245 276h-239v112h396zM206 551l47 124h146l-111 -124h-82z" />
    <glyph glyph-name="zcaron" unicode="&#x17e;" horiz-adv-x="492" 
d="M447 506v-116l-221 -271h221v-119h-402v118l245 276h-239v112h396zM192 564l-81 121h95l43 -58l43 58h95l-73 -121h-122z" />
    <glyph glyph-name="zdotaccent" unicode="&#x17c;" horiz-adv-x="492" 
d="M447 506v-116l-221 -271h221v-119h-402v118l245 276h-239v112h396zM183 551v100h121v-100h-121z" />
    <glyph glyph-name="ordfeminine" unicode="&#xaa;" horiz-adv-x="403" 
d="M103 403.5q-35 22.5 -35 71.5q0 86 104 86q25 0 42.5 -4t22.5 -8q0 62 -50 62q-22 0 -47 -5t-44 -12v62q21 8 47 13.5t50 5.5q65 0 98.5 -30.5t33.5 -88.5v-82q0 -53 -32.5 -73t-98.5 -20q-56 0 -91 22.5zM239 471v35q-17 7 -38 7q-19 0 -32.5 -9t-13.5 -26q0 -37 42 -37
t42 30z" />
    <glyph glyph-name="ordmasculine" unicode="&#xba;" horiz-adv-x="422" 
d="M111 424.5q-36 35.5 -36 107.5q0 73 35.5 108.5t97.5 35.5t97.5 -35.5t35.5 -108.5q0 -72 -36 -107.5t-97 -35.5t-97 35.5zM262 532q0 43 -13.5 63.5t-40.5 20.5t-40.5 -20.5t-13.5 -63.5q0 -83 54 -83t54 83z" />
    <glyph glyph-name="pi" unicode="&#x3c0;" horiz-adv-x="630" 
d="M134 0v392h-100v107h561v-107h-102v-392h-107v392h-143v-392h-109z" />
    <glyph glyph-name="zero" unicode="0" horiz-adv-x="666" 
d="M113.5 72.5q-70.5 85.5 -70.5 260.5t70.5 260.5t219.5 85.5t220 -85.5t71 -260.5t-71 -260.5t-220 -85.5t-219.5 85.5zM424.5 162q34.5 44 34.5 171q0 126 -34.5 170.5t-91.5 44.5q-56 0 -90.5 -44.5t-34.5 -170.5q0 -127 34.5 -171t90.5 -44q57 0 91.5 44z" />
    <glyph glyph-name="one" unicode="1" horiz-adv-x="470" 
d="M188 0v511l-129 -73v144l148 85h143v-667h-162z" />
    <glyph glyph-name="two" unicode="2" horiz-adv-x="608" 
d="M537 148v-148h-467v114q62 36 130.5 95.5t115 125t46.5 117.5q0 51 -31 76.5t-84 25.5q-44 0 -83.5 -19t-87.5 -55v138q101 62 220 62q110 0 169 -53.5t59 -151.5q0 -66 -37 -125t-89 -104.5t-124 -97.5h263z" />
    <glyph glyph-name="three" unicode="3" horiz-adv-x="595" 
d="M72 44v138q56 -33 98.5 -50.5t89.5 -17.5q58 0 90.5 21.5t32.5 60.5q0 88 -126 88h-99v122h101q47 0 70.5 19.5t23.5 50.5q0 39 -30.5 57t-79.5 18q-36 0 -72.5 -9t-85.5 -32v123q39 20 84 31.5t90 11.5q100 0 168.5 -46t68.5 -136q0 -35 -16.5 -64t-40 -46.5
t-42.5 -21.5q30 -9 59.5 -32t49 -59.5t19.5 -82.5q0 -99 -73.5 -147.5t-184.5 -48.5q-95 0 -195 52z" />
    <glyph glyph-name="four" unicode="4" horiz-adv-x="610" 
d="M326 0v179h-287v116l299 372h151v-366h84v-122h-84v-179h-163zM177 301h149v185z" />
    <glyph glyph-name="five" unicode="5" horiz-adv-x="598" 
d="M489.5 395q66.5 -55 66.5 -168q0 -129 -77.5 -184t-197.5 -55q-61 0 -114.5 15.5t-84.5 37.5v151q28 -29 77 -50.5t101 -21.5q62 0 96.5 26t34.5 69q0 51 -30.5 74t-79.5 23q-41 0 -76.5 -10t-51.5 -20l-72 80l42 306h379v-141h-276l-13 -89q49 12 110 12
q100 0 166.5 -55z" />
    <glyph glyph-name="six" unicode="6" horiz-adv-x="625" 
d="M581 214q0 -66 -31 -117t-92.5 -80t-151.5 -29q-262 0 -262 320q0 219 101.5 295.5t228.5 76.5q87 0 145 -25v-135q-33 15 -64 22.5t-69 7.5q-78 0 -125 -45.5t-54 -134.5q55 66 143 67q231 -1 231 -223zM393.5 148.5q24.5 28.5 24.5 68.5q0 50 -25.5 76t-70.5 26
q-85 0 -111 -71q9 -75 35.5 -101.5t71.5 -26.5q51 0 75.5 28.5z" />
    <glyph glyph-name="seven" unicode="7" horiz-adv-x="592" 
d="M67 667h480v-94l-237 -573h-177l233 519h-299v148z" />
    <glyph glyph-name="eight" unicode="8" horiz-adv-x="631" 
d="M112 41.5q-69 53.5 -69 146.5q0 62 34 100t79 57q-37 19 -65.5 53t-28.5 90q0 94 63 143t191 49t191 -49t63 -143q0 -57 -28.5 -91t-65.5 -51q45 -20 79 -58.5t34 -99.5q0 -93 -69 -146.5t-204 -53.5t-204 53.5zM377 413q27 21 27 59q0 36 -25 58.5t-63 22.5t-63 -22.5
t-25 -58.5q0 -38 27 -59t61 -21t61 21zM394.5 145q23.5 31 23.5 70q0 35 -27 60.5t-75 25.5t-75 -25.5t-27 -60.5q0 -39 23.5 -70t78.5 -31t78.5 31z" />
    <glyph glyph-name="nine" unicode="9" horiz-adv-x="628" 
d="M514.5 599.5q66.5 -80.5 66.5 -239.5q0 -219 -101.5 -295.5t-228.5 -76.5q-87 0 -145 25v135q34 -15 64.5 -22.5t68.5 -7.5q79 0 125.5 45.5t53.5 133.5q-55 -65 -143 -66q-231 1 -231 224q0 65 30.5 116t89.5 80t141 29q143 0 209.5 -80.5zM414 420q-9 75 -36 101.5
t-73 26.5q-50 0 -73.5 -28.5t-23.5 -68.5q0 -49 25.5 -75.5t70.5 -26.5q84 0 110 71z" />
    <glyph glyph-name="zero.inferior" unicode="&#x2080;" horiz-adv-x="379" 
d="M63.5 -108.5q-39.5 45.5 -39.5 138.5q0 92 39.5 138t125.5 46t125.5 -45.5t39.5 -138.5t-39.5 -138.5t-125.5 -45.5t-125.5 45.5zM248 30q0 56 -17 77.5t-42 21.5q-23 0 -40.5 -21.5t-17.5 -77.5t17.5 -77.5t40.5 -21.5q59 0 59 99z" />
    <glyph glyph-name="one.inferior" unicode="&#x2081;" horiz-adv-x="245" 
d="M100 209h85v-359h-104v244l-53 -31v101z" />
    <glyph glyph-name="two.inferior" unicode="&#x2082;" horiz-adv-x="336" 
d="M300 -53v-97h-254v62l50 36.5t67.5 64t25.5 64.5q0 24 -16 38t-38 14q-26 0 -44 -8.5t-42 -24.5v85q54 33 107 33q74 0 107.5 -32t33.5 -78q0 -43 -31.5 -85t-81.5 -72h116z" />
    <glyph glyph-name="three.inferior" unicode="&#x2083;" horiz-adv-x="331" 
d="M44 -127v81q29 -17 47 -24.5t40 -7.5q26 0 42 11t16 31q0 19 -15 31t-45 12h-39v64h41q19 0 30 9t11 26q0 14 -14.5 22t-35.5 8q-30 0 -70 -19v73q46 23 93 23q55 0 95.5 -25t40.5 -73q0 -27 -18 -47t-35 -24q30 -10 49.5 -33.5t19.5 -59.5q0 -53 -43.5 -79t-104.5 -26
q-49 0 -105 27z" />
    <glyph glyph-name="four.inferior" unicode="&#x2084;" horiz-adv-x="339" 
d="M276 13h45v-80h-45v-83h-98v83h-152v75l160 201h90v-196zM113 13h65v82z" />
    <glyph glyph-name="five.inferior" unicode="&#x2085;" horiz-adv-x="324" 
d="M57 -130v84q18 -12 40 -19t44 -7q27 0 39.5 10.5t12.5 32.5t-14.5 33t-36.5 11q-23 0 -50 -15l-43 38l19 172h211v-83h-139l-4 -47q16 3 52 3q45 0 79.5 -27.5t34.5 -86.5q0 -65 -36 -94t-96 -29q-63 0 -113 24z" />
    <glyph glyph-name="six.inferior" unicode="&#x2086;" horiz-adv-x="344" 
d="M54 -112.5q-38 41.5 -38 127.5q0 119 57.5 158.5t142.5 39.5q42 0 67 -11v-71q-34 10 -60 10q-34 0 -64 -20t-33 -67q26 30 86 30q45 0 75.5 -28.5t30.5 -81.5q0 -58 -35 -93t-104 -35q-87 0 -125 41.5zM198.5 -73q10.5 16 10.5 40q0 26 -11 39.5t-27 13.5
q-14 0 -26.5 -10t-18.5 -23q0 -35 12.5 -55.5t30.5 -20.5q19 0 29.5 16z" />
    <glyph glyph-name="seven.inferior" unicode="&#x2087;" horiz-adv-x="320" 
d="M37 209h263v-51l-127 -308h-114l117 263h-139v96z" />
    <glyph glyph-name="eight.inferior" unicode="&#x2088;" horiz-adv-x="340" 
d="M54.5 -125.5q-37.5 28.5 -37.5 80.5q0 35 22 58.5t47 29.5q-19 6 -37 25t-18 48q0 97 139 97q138 0 138 -97q0 -29 -17.5 -48t-36.5 -25q25 -6 47 -29.5t22 -58.5q0 -51 -37.5 -80t-115.5 -29t-115.5 28.5zM197.5 77.5q10.5 9.5 10.5 27.5q0 17 -10 27.5t-28 10.5
q-17 0 -27 -10.5t-10 -27.5t10.5 -27t26.5 -10q17 0 27.5 9.5zM204 -71q11 13 11 34q0 18 -12 30.5t-33 12.5t-33.5 -12.5t-12.5 -30.5q0 -20 12 -33.5t34 -13.5q23 0 34 13z" />
    <glyph glyph-name="nine.inferior" unicode="&#x2089;" horiz-adv-x="346" 
d="M53 -142v71q36 -11 60 -11q33 0 63.5 20t33.5 67q-13 -13 -32 -21.5t-55 -8.5q-45 0 -75.5 29t-30.5 82q0 58 35 93t104 35q87 0 125 -41.5t38 -127.5q0 -120 -57 -159.5t-142 -39.5q-40 0 -67 12zM190.5 50q13.5 10 19.5 23q0 36 -13 55.5t-34 19.5q-17 0 -26.5 -17
t-9.5 -38q0 -26 10 -39.5t23 -13.5q17 0 30.5 10z" />
    <glyph glyph-name="zero.superior" unicode="&#x2070;" horiz-adv-x="379" 
d="M63.5 504.5q-39.5 45.5 -39.5 138.5q0 92 39.5 138t125.5 46t125.5 -45.5t39.5 -138.5t-39.5 -138.5t-125.5 -45.5t-125.5 45.5zM248 643q0 56 -17 77.5t-42 21.5q-23 0 -40.5 -21.5t-17.5 -77.5t17.5 -77.5t40.5 -21.5q59 0 59 99z" />
    <glyph glyph-name="one.superior" unicode="&#xb9;" horiz-adv-x="245" 
d="M100 821h85v-359h-104v244l-53 -31v101z" />
    <glyph glyph-name="two.superior" unicode="&#xb2;" horiz-adv-x="336" 
d="M300 560v-97h-254v62l50 36.5t67.5 64t25.5 64.5q0 24 -16 38t-38 14q-26 0 -44 -8.5t-42 -24.5v85q54 33 107 33q74 0 107.5 -32t33.5 -78q0 -43 -31.5 -85t-81.5 -72h116z" />
    <glyph glyph-name="three.superior" unicode="&#xb3;" horiz-adv-x="331" 
d="M44 486v81q29 -17 47 -24.5t40 -7.5q26 0 42 11t16 31q0 19 -15 31t-45 12h-39v64h41q19 0 30 9t11 26q0 14 -14.5 22t-35.5 8q-30 0 -70 -19v73q46 23 93 23q55 0 95.5 -25t40.5 -73q0 -27 -18 -47t-35 -24q30 -10 49.5 -33.5t19.5 -59.5q0 -53 -43.5 -79t-104.5 -26
q-49 0 -105 27z" />
    <glyph glyph-name="four.superior" unicode="&#x2074;" horiz-adv-x="339" 
d="M276 626h45v-80h-45v-83h-98v83h-152v75l160 201h90v-196zM113 626h65v82z" />
    <glyph glyph-name="five.superior" unicode="&#x2075;" horiz-adv-x="324" 
d="M57 482v84q18 -12 40 -19t44 -7q27 0 39.5 10.5t12.5 32.5t-14.5 33t-36.5 11q-23 0 -50 -15l-43 38l19 172h211v-83h-139l-4 -47q16 3 52 3q45 0 79.5 -27.5t34.5 -86.5q0 -65 -36 -94t-96 -29q-63 0 -113 24z" />
    <glyph glyph-name="six.superior" unicode="&#x2076;" horiz-adv-x="344" 
d="M54 500.5q-38 41.5 -38 127.5q0 119 57.5 158.5t142.5 39.5q42 0 67 -11v-71q-34 10 -60 10q-34 0 -64 -20t-33 -67q26 30 86 30q45 0 75.5 -28.5t30.5 -81.5q0 -58 -35 -93t-104 -35q-87 0 -125 41.5zM198.5 540q10.5 16 10.5 40q0 26 -11 39.5t-27 13.5
q-14 0 -26.5 -10t-18.5 -23q0 -35 12.5 -55.5t30.5 -20.5q19 0 29.5 16z" />
    <glyph glyph-name="seven.superior" unicode="&#x2077;" horiz-adv-x="320" 
d="M37 821h263v-51l-127 -308h-114l117 263h-139v96z" />
    <glyph glyph-name="eight.superior" unicode="&#x2078;" horiz-adv-x="340" 
d="M54.5 487.5q-37.5 28.5 -37.5 80.5q0 35 22 58.5t47 29.5q-19 6 -37 25t-18 48q0 97 139 97q138 0 138 -97q0 -29 -17.5 -48t-36.5 -25q25 -6 47 -29.5t22 -58.5q0 -51 -37.5 -80t-115.5 -29t-115.5 28.5zM197.5 690.5q10.5 9.5 10.5 27.5q0 17 -10 27.5t-28 10.5
q-17 0 -27 -10.5t-10 -27.5t10.5 -27t26.5 -10q17 0 27.5 9.5zM204 542q11 13 11 34q0 18 -12 30.5t-33 12.5t-33.5 -12.5t-12.5 -30.5q0 -20 12 -33.5t34 -13.5q23 0 34 13z" />
    <glyph glyph-name="nine.superior" unicode="&#x2079;" horiz-adv-x="346" 
d="M53 470v71q36 -11 60 -11q33 0 63.5 20t33.5 67q-13 -13 -32 -21.5t-55 -8.5q-45 0 -75.5 29t-30.5 82q0 58 35 93t104 35q87 0 125 -41.5t38 -127.5q0 -120 -57 -159.5t-142 -39.5q-40 0 -67 12zM190.5 662q13.5 10 19.5 23q0 36 -13 55.5t-34 19.5q-17 0 -26.5 -17
t-9.5 -38q0 -26 10 -39.5t23 -13.5q17 0 30.5 10z" />
    <glyph glyph-name="zero.zero" horiz-adv-x="666" 
d="M596 518.5q28 -74.5 28 -185.5q0 -175 -71 -260.5t-220 -85.5q-51 0 -97 11l-41 -96h-106l59 137q-105 81 -105 294q0 175 70.5 260.5t219.5 85.5q44 0 86 -8l37 85h107l-53 -123q58 -40 86 -114.5zM222 210l143 335q-15 3 -32 3q-56 0 -90.5 -44.5t-34.5 -170.5
q0 -75 14 -123zM424.5 162q34.5 44 34.5 171q0 87 -19 138l-149 -347q20 -6 42 -6q57 0 91.5 44z" />
    <glyph glyph-name="zero.dnom" horiz-adv-x="379" 
d="M63.5 34.5q-39.5 45.5 -39.5 138.5q0 92 39.5 138t125.5 46t125.5 -45.5t39.5 -138.5t-39.5 -138.5t-125.5 -45.5t-125.5 45.5zM248 173q0 56 -17 77.5t-42 21.5q-23 0 -40.5 -21.5t-17.5 -77.5t17.5 -77.5t40.5 -21.5q59 0 59 99z" />
    <glyph glyph-name="one.dnom" horiz-adv-x="245" 
d="M100 359h85v-359h-104v244l-53 -31v101z" />
    <glyph glyph-name="two.dnom" horiz-adv-x="336" 
d="M300 97v-97h-254v62l50 36.5t67.5 64t25.5 64.5q0 24 -16 38t-38 14q-26 0 -44 -8.5t-42 -24.5v85q54 33 107 33q74 0 107.5 -32t33.5 -78q0 -43 -31.5 -85t-81.5 -72h116z" />
    <glyph glyph-name="three.dnom" horiz-adv-x="331" 
d="M44 23v81q29 -17 47 -24.5t40 -7.5q26 0 42 11t16 31q0 19 -15 31t-45 12h-39v64h41q19 0 30 9t11 26q0 14 -14.5 22t-35.5 8q-30 0 -70 -19v73q46 23 93 23q55 0 95.5 -25t40.5 -73q0 -27 -18 -47t-35 -24q30 -10 49.5 -33.5t19.5 -59.5q0 -53 -43.5 -79t-104.5 -26
q-49 0 -105 27z" />
    <glyph glyph-name="four.dnom" horiz-adv-x="339" 
d="M276 163h45v-80h-45v-83h-98v83h-152v75l160 201h90v-196zM113 163h65v82z" />
    <glyph glyph-name="five.dnom" horiz-adv-x="324" 
d="M57 13v84q18 -12 40 -19t44 -7q27 0 39.5 10.5t12.5 32.5t-14.5 33t-36.5 11q-23 0 -50 -15l-43 38l19 172h211v-83h-139l-4 -47q16 3 52 3q45 0 79.5 -27.5t34.5 -86.5q0 -65 -36 -94t-96 -29q-63 0 -113 24z" />
    <glyph glyph-name="six.dnom" horiz-adv-x="344" 
d="M54 37.5q-38 41.5 -38 127.5q0 119 57.5 158.5t142.5 39.5q42 0 67 -11v-71q-34 10 -60 10q-34 0 -64 -20t-33 -67q26 30 86 30q45 0 75.5 -28.5t30.5 -81.5q0 -58 -35 -93t-104 -35q-87 0 -125 41.5zM198.5 77q10.5 16 10.5 40q0 26 -11 39.5t-27 13.5q-14 0 -26.5 -10
t-18.5 -23q0 -35 12.5 -55.5t30.5 -20.5q19 0 29.5 16z" />
    <glyph glyph-name="seven.dnom" horiz-adv-x="320" 
d="M37 359h263v-51l-127 -308h-114l117 263h-139v96z" />
    <glyph glyph-name="eight.dnom" horiz-adv-x="340" 
d="M54.5 24.5q-37.5 28.5 -37.5 80.5q0 35 22 58.5t47 29.5q-19 6 -37 25t-18 48q0 97 139 97q138 0 138 -97q0 -29 -17.5 -48t-36.5 -25q25 -6 47 -29.5t22 -58.5q0 -51 -37.5 -80t-115.5 -29t-115.5 28.5zM197.5 227.5q10.5 9.5 10.5 27.5q0 17 -10 27.5t-28 10.5
q-17 0 -27 -10.5t-10 -27.5t10.5 -27t26.5 -10q17 0 27.5 9.5zM204 79q11 13 11 34q0 18 -12 30.5t-33 12.5t-33.5 -12.5t-12.5 -30.5q0 -20 12 -33.5t34 -13.5q23 0 34 13z" />
    <glyph glyph-name="nine.dnom" horiz-adv-x="346" 
d="M53 1v71q36 -11 60 -11q33 0 63.5 20t33.5 67q-13 -13 -32 -21.5t-55 -8.5q-45 0 -75.5 29t-30.5 82q0 58 35 93t104 35q87 0 125 -41.5t38 -127.5q0 -120 -57 -159.5t-142 -39.5q-40 0 -67 12zM190.5 193q13.5 10 19.5 23q0 36 -13 55.5t-34 19.5q-17 0 -26.5 -17
t-9.5 -38q0 -26 10 -39.5t23 -13.5q17 0 30.5 10z" />
    <glyph glyph-name="zero.numr" horiz-adv-x="379" 
d="M63.5 356.5q-39.5 45.5 -39.5 138.5q0 92 39.5 138t125.5 46t125.5 -45.5t39.5 -138.5t-39.5 -138.5t-125.5 -45.5t-125.5 45.5zM248 495q0 56 -17 77.5t-42 21.5q-23 0 -40.5 -21.5t-17.5 -77.5t17.5 -77.5t40.5 -21.5q59 0 59 99z" />
    <glyph glyph-name="one.numr" horiz-adv-x="245" 
d="M100 672h85v-359h-104v244l-53 -31v101z" />
    <glyph glyph-name="two.numr" horiz-adv-x="336" 
d="M300 419v-97h-254v62l50 36.5t67.5 64t25.5 64.5q0 24 -16 38t-38 14q-26 0 -44 -8.5t-42 -24.5v85q54 33 107 33q74 0 107.5 -32t33.5 -78q0 -43 -31.5 -85t-81.5 -72h116z" />
    <glyph glyph-name="three.numr" horiz-adv-x="331" 
d="M44 345v81q29 -17 47 -24.5t40 -7.5q26 0 42 11t16 31q0 19 -15 31t-45 12h-39v64h41q19 0 30 9t11 26q0 14 -14.5 22t-35.5 8q-30 0 -70 -19v73q46 23 93 23q55 0 95.5 -25t40.5 -73q0 -27 -18 -47t-35 -24q30 -10 49.5 -33.5t19.5 -59.5q0 -53 -43.5 -79t-104.5 -26
q-49 0 -105 27z" />
    <glyph glyph-name="four.numr" horiz-adv-x="339" 
d="M276 476h45v-80h-45v-83h-98v83h-152v75l160 201h90v-196zM113 476h65v82z" />
    <glyph glyph-name="five.numr" horiz-adv-x="324" 
d="M57 326v84q18 -12 40 -19t44 -7q27 0 39.5 10.5t12.5 32.5t-14.5 33t-36.5 11q-23 0 -50 -15l-43 38l19 172h211v-83h-139l-4 -47q17 3 52 3q45 0 79.5 -27.5t34.5 -86.5q0 -65 -36 -94t-96 -29q-63 0 -113 24z" />
    <glyph glyph-name="six.numr" horiz-adv-x="344" 
d="M54 359.5q-38 41.5 -38 127.5q0 119 57.5 158.5t142.5 39.5q42 0 67 -11v-71q-34 10 -60 10q-34 0 -64 -20t-33 -67q26 30 86 30q45 0 75.5 -28.5t30.5 -81.5q0 -58 -35 -93t-104 -35q-87 0 -125 41.5zM198.5 399q10.5 16 10.5 40q0 26 -11 39.5t-27 13.5
q-14 0 -26.5 -10t-18.5 -23q0 -35 12.5 -55.5t30.5 -20.5q19 0 29.5 16z" />
    <glyph glyph-name="seven.numr" horiz-adv-x="320" 
d="M37 672h263v-51l-127 -308h-114l117 263h-139v96z" />
    <glyph glyph-name="eight.numr" horiz-adv-x="340" 
d="M54.5 346.5q-37.5 28.5 -37.5 80.5q0 35 22 58.5t47 29.5q-19 6 -37 25t-18 48q0 97 139 97q138 0 138 -97q0 -29 -17.5 -48t-36.5 -25q25 -6 47 -29.5t22 -58.5q0 -51 -37.5 -80t-115.5 -29t-115.5 28.5zM197.5 549.5q10.5 9.5 10.5 27.5q0 17 -10 27.5t-28 10.5
q-17 0 -27 -10.5t-10 -27.5t10.5 -27t26.5 -10q17 0 27.5 9.5zM204 401q11 13 11 34q0 18 -12 30.5t-33 12.5t-33.5 -12.5t-12.5 -30.5q0 -20 12 -33.5t34 -13.5q23 0 34 13z" />
    <glyph glyph-name="nine.numr" horiz-adv-x="346" 
d="M53 323v71q36 -11 60 -11q33 0 63.5 20t33.5 67q-13 -13 -32 -21.5t-55 -8.5q-45 0 -75.5 29t-30.5 82q0 58 35 93t104 35q87 0 125 -41.5t38 -127.5q0 -120 -57 -159.5t-142 -39.5q-40 0 -67 12zM190.5 515q13.5 10 19.5 23q0 36 -13 55.5t-34 19.5q-17 0 -26.5 -17
t-9.5 -38q0 -26 10 -39.5t23 -13.5q17 0 30.5 10z" />
    <glyph glyph-name="fraction" unicode="&#x2044;" horiz-adv-x="426" 
d="M-50 -22l416 707h107l-416 -707h-107z" />
    <glyph glyph-name="onehalf" unicode="&#xbd;" horiz-adv-x="737" 
d="M100 672h85v-359h-104v244l-53 -31v101zM59 -22l416 707h107l-416 -707h-107zM687 97v-97h-254v62l50 36.5t67.5 64t25.5 64.5q0 24 -16 38t-38 14q-26 0 -44 -8.5t-42 -24.5v85q54 33 107 33q74 0 107.5 -32t33.5 -78q0 -43 -31.5 -85t-81.5 -72h116z" />
    <glyph glyph-name="uni2153" unicode="&#x2153;" horiz-adv-x="752" 
d="M100 672h85v-359h-104v244l-53 -31v101zM77 -22l416 707h107l-416 -707h-107zM464 23v81q29 -17 47 -24.5t40 -7.5q26 0 42 11t16 31q0 19 -15 31t-45 12h-39v64h41q19 0 30 9t11 26q0 14 -14.5 22t-35.5 8q-30 0 -70 -19v73q46 23 93 23q55 0 95.5 -25t40.5 -73
q0 -27 -18 -47t-35 -24q30 -10 49.5 -33.5t19.5 -59.5q0 -53 -43.5 -79t-104.5 -26q-49 0 -105 27z" />
    <glyph glyph-name="onequarter" unicode="&#xbc;" horiz-adv-x="735" 
d="M100 672h85v-359h-104v244l-53 -31v101zM61 -22l416 707h107l-416 -707h-107zM640 163h45v-80h-45v-83h-98v83h-152v75l160 201h90v-196zM477 163h65v82z" />
    <glyph glyph-name="threequarters" unicode="&#xbe;" horiz-adv-x="785" 
d="M44 345v81q29 -17 47 -24.5t40 -7.5q26 0 42 11t16 31q0 19 -15 31t-45 12h-39v64h41q19 0 30 9t11 26q0 14 -14.5 22t-35.5 8q-30 0 -70 -19v73q46 23 93 23q55 0 95.5 -25t40.5 -73q0 -27 -18 -47t-35 -24q30 -10 49.5 -33.5t19.5 -59.5q0 -53 -43.5 -79t-104.5 -26
q-49 0 -105 27zM118 -22l416 707h107l-416 -707h-107zM690 163h45v-80h-45v-83h-98v83h-152v75l160 201h90v-196zM527 163h65v82z" />
    <glyph glyph-name="oneeighth" unicode="&#x215b;" horiz-adv-x="768" 
d="M100 672h85v-359h-104v244l-53 -31v101zM62 -22l416 707h107l-416 -707h-107zM457.5 24.5q-37.5 28.5 -37.5 80.5q0 35 22 58.5t47 29.5q-19 6 -37 25t-18 48q0 97 139 97q138 0 138 -97q0 -29 -17.5 -48t-36.5 -25q25 -6 47 -29.5t22 -58.5q0 -51 -37.5 -80t-115.5 -29
t-115.5 28.5zM600.5 227.5q10.5 9.5 10.5 27.5q0 17 -10 27.5t-28 10.5q-17 0 -27 -10.5t-10 -27.5t10.5 -27t26.5 -10q17 0 27.5 9.5zM607 79q11 13 11 34q0 18 -12 30.5t-33 12.5t-33.5 -12.5t-12.5 -30.5q0 -20 12 -33.5t34 -13.5q23 0 34 13z" />
    <glyph glyph-name="threeeighths" unicode="&#x215c;" horiz-adv-x="838" 
d="M44 345v81q29 -17 47 -24.5t40 -7.5q26 0 42 11t16 31q0 19 -15 31t-45 12h-39v64h41q19 0 30 9t11 26q0 14 -14.5 22t-35.5 8q-30 0 -70 -19v73q46 23 93 23q55 0 95.5 -25t40.5 -73q0 -27 -18 -47t-35 -24q30 -10 49.5 -33.5t19.5 -59.5q0 -53 -43.5 -79t-104.5 -26
q-49 0 -105 27zM128 -22l416 707h107l-416 -707h-107zM527.5 24.5q-37.5 28.5 -37.5 80.5q0 35 22 58.5t47 29.5q-19 6 -37 25t-18 48q0 97 139 97q138 0 138 -97q0 -29 -17.5 -48t-36.5 -25q25 -6 47 -29.5t22 -58.5q0 -51 -37.5 -80t-115.5 -29t-115.5 28.5zM670.5 227.5
q10.5 9.5 10.5 27.5q0 17 -10 27.5t-28 10.5q-17 0 -27 -10.5t-10 -27.5t10.5 -27t26.5 -10q17 0 27.5 9.5zM677 79q11 13 11 34q0 18 -12 30.5t-33 12.5t-33.5 -12.5t-12.5 -30.5q0 -20 12 -33.5t34 -13.5q23 0 34 13z" />
    <glyph glyph-name="fiveeighths" unicode="&#x215d;" horiz-adv-x="855" 
d="M57 326v84q18 -12 40 -19t44 -7q27 0 39.5 10.5t12.5 32.5t-14.5 33t-36.5 11q-23 0 -50 -15l-43 38l19 172h211v-83h-139l-4 -47q17 3 52 3q45 0 79.5 -27.5t34.5 -86.5q0 -65 -36 -94t-96 -29q-63 0 -113 24zM149 -22l416 707h107l-416 -707h-107zM544.5 24.5
q-37.5 28.5 -37.5 80.5q0 35 22 58.5t47 29.5q-19 6 -37 25t-18 48q0 97 139 97q138 0 138 -97q0 -29 -17.5 -48t-36.5 -25q25 -6 47 -29.5t22 -58.5q0 -51 -37.5 -80t-115.5 -29t-115.5 28.5zM687.5 227.5q10.5 9.5 10.5 27.5q0 17 -10 27.5t-28 10.5q-17 0 -27 -10.5
t-10 -27.5t10.5 -27t26.5 -10q17 0 27.5 9.5zM694 79q11 13 11 34q0 18 -12 30.5t-33 12.5t-33.5 -12.5t-12.5 -30.5q0 -20 12 -33.5t34 -13.5q23 0 34 13z" />
    <glyph glyph-name="seveneighths" unicode="&#x215e;" horiz-adv-x="816" 
d="M37 672h263v-51l-127 -308h-114l117 263h-139v96zM94 -22l416 707h107l-416 -707h-107zM505.5 24.5q-37.5 28.5 -37.5 80.5q0 35 22 58.5t47 29.5q-19 6 -37 25t-18 48q0 97 139 97q138 0 138 -97q0 -29 -17.5 -48t-36.5 -25q25 -6 47 -29.5t22 -58.5q0 -51 -37.5 -80
t-115.5 -29t-115.5 28.5zM648.5 227.5q10.5 9.5 10.5 27.5q0 17 -10 27.5t-28 10.5q-17 0 -27 -10.5t-10 -27.5t10.5 -27t26.5 -10q17 0 27.5 9.5zM655 79q11 13 11 34q0 18 -12 30.5t-33 12.5t-33.5 -12.5t-12.5 -30.5q0 -20 12 -33.5t34 -13.5q23 0 34 13z" />
    <glyph glyph-name="asterisk" unicode="*" horiz-adv-x="412" 
d="M172 460l7 72l-60 -44l-35 62l80 31l-80 31l35 62l60 -44l-7 72h71l-6 -72l60 44l34 -62l-79 -31l79 -31l-34 -62l-60 44l6 -72h-71z" />
    <glyph glyph-name="backslash" unicode="\" horiz-adv-x="411" 
d="M331 -98l-368 854h107l367 -854h-106z" />
    <glyph glyph-name="periodcentered" unicode="&#xb7;" horiz-adv-x="347" 
d="M108 213v121h125v-121h-125z" />
    <glyph glyph-name="bullet" unicode="&#x2022;" horiz-adv-x="496" 
d="M167 187.5q-37 21.5 -59 59t-22 81.5t22 81t59 58.5t81 21.5t81 -21.5t58.5 -58.5t21.5 -81t-21.5 -81.5t-58.5 -59t-81 -21.5t-81 21.5z" />
    <glyph glyph-name="colon" unicode=":" horiz-adv-x="414" 
d="M143 339v121h125v-121h-125zM143 39v121h125v-121h-125z" />
    <glyph glyph-name="comma" unicode="," horiz-adv-x="351" 
d="M74 -112l74 196h122l-92 -196h-104z" />
    <glyph glyph-name="ellipsis" unicode="&#x2026;" horiz-adv-x="863" 
d="M179 0v121h125v-121h-125zM616 121v-121h-173v121h173z" />
    <glyph glyph-name="exclam" unicode="!" horiz-adv-x="413" 
d="M158 184l-17 483h143l-18 -483h-108zM146 0v114h132v-114h-132z" />
    <glyph glyph-name="exclamdown" unicode="&#xa1;" horiz-adv-x="410" 
d="M143 386v113h133v-113h-133zM138 -168l18 483h107l18 -483h-143z" />
    <glyph glyph-name="numbersign" unicode="#" horiz-adv-x="618" 
d="M129 19l19 104h-75v81h88l23 131h-84v81h98l18 106h86l-19 -106h114l19 106h85l-19 -106h64v-81h-77l-23 -131h73v-81h-87l-18 -104h-85l18 104h-115l-17 -104h-86zM246 204h116l21 131h-114z" />
    <glyph glyph-name="period" unicode="." horiz-adv-x="263" 
d="M59 0v141h145v-141h-145z" />
    <glyph glyph-name="question" unicode="?" horiz-adv-x="513" 
d="M180 209q0 50 13.5 85t32 56.5t47.5 47.5t42 43.5t13 42.5q0 46 -27.5 64t-75.5 18q-39 0 -78 -13.5t-67 -34.5v113q23 16 68 30t94 14q95 0 149.5 -51.5t54.5 -139.5q0 -34 -10.5 -59.5t-25 -42.5t-39.5 -40q-36 -32 -54.5 -61t-18.5 -76v-20h-118v24zM173 0v114h132
v-114h-132z" />
    <glyph glyph-name="questiondown" unicode="&#xbf;" horiz-adv-x="512" 
d="M219 386v113h132v-113h-132zM132.5 -124q-54.5 52 -54.5 140q0 49 19 78.5t56 62.5q37 34 55 62t18 75v21h118v-25q0 -50 -13.5 -85t-32 -56.5t-47.5 -47.5t-42 -43.5t-13 -42.5q0 -46 27.5 -64t75.5 -18q39 0 78 13.5t67 34.5v-113q-23 -16 -68 -30t-94 -14
q-95 0 -149.5 52z" />
    <glyph glyph-name="quotedbl" unicode="&#x22;" horiz-adv-x="422" 
d="M99 475l-18 201h112l-17 -201h-77zM245 475l-17 201h111l-17 -201h-77z" />
    <glyph glyph-name="quotesingle" unicode="'" horiz-adv-x="274" 
d="M99 475l-18 201h112l-17 -201h-77z" />
    <glyph glyph-name="semicolon" unicode=";" horiz-adv-x="309" 
d="M105 319v141h145v-141h-145zM37 -112l71 210h138l-106 -210h-103z" />
    <glyph glyph-name="slash" unicode="/" horiz-adv-x="445" 
d="M-14 -98l367 854h107l-368 -854h-106z" />
    <glyph glyph-name="underscore" unicode="_" horiz-adv-x="546" 
d="M0 -109v85h546v-85h-546z" />
    <glyph glyph-name="periodcentered.loclCAT.case" horiz-adv-x="347" 
d="M108 213v121h125v-121h-125z" />
    <glyph glyph-name="periodcentered.loclCAT" horiz-adv-x="347" 
d="M108 213v121h125v-121h-125z" />
    <glyph glyph-name="braceleft" unicode="{" horiz-adv-x="392" 
d="M162 -68q-49 41 -49 115v139q0 29 -16.5 41t-37.5 20v96q17 4 35.5 17.5t18.5 42.5v139q0 74 49 115t164 41h23v-132h-18q-34 -1 -45.5 -18.5t-11.5 -51.5v-98q0 -40 -24 -66t-60 -38q37 -11 60.5 -36.5t23.5 -67.5v-98q0 -34 12 -51.5t45 -17.5h18v-132h-23
q-115 0 -164 41z" />
    <glyph glyph-name="braceright" unicode="}" horiz-adv-x="386" 
d="M53 23h17q33 0 45 17.5t12 51.5v98q0 42 24 67.5t60 36.5q-36 12 -60 38t-24 66v98q0 34 -11.5 51.5t-45.5 18.5h-17v132h22q115 0 164 -41t49 -115v-139q0 -29 18.5 -42.5t35.5 -17.5v-96q-21 -8 -37.5 -20t-16.5 -41v-139q0 -74 -49 -115t-164 -41h-22v132z" />
    <glyph glyph-name="bracketleft" unicode="[" horiz-adv-x="396" 
d="M81 -116v812h266v-132h-104v-547h104v-133h-266z" />
    <glyph glyph-name="bracketright" unicode="]" horiz-adv-x="405" 
d="M71 -116v132h104v547h-104v133h265v-812h-265z" />
    <glyph glyph-name="parenleft" unicode="(" horiz-adv-x="354" 
d="M96 66q-44 111 -44 240q0 128 44 239t104 179h124q-40 -77 -73 -184.5t-33 -233.5q0 -127 33 -234.5t73 -184.5h-124q-60 68 -104 179z" />
    <glyph glyph-name="parenright" unicode=")" horiz-adv-x="354" 
d="M104 72q33 107 33 233q0 127 -33 234t-74 185h125q59 -68 103 -179t44 -240q0 -128 -44 -239t-103 -179h-125q41 78 74 185z" />
    <glyph glyph-name="emdash" unicode="&#x2014;" horiz-adv-x="891" 
d="M79 240v102h733v-102h-733z" />
    <glyph glyph-name="endash" unicode="&#x2013;" horiz-adv-x="560" 
d="M69 240v100h420v-100h-420z" />
    <glyph glyph-name="hyphen" unicode="-" horiz-adv-x="464" 
d="M79 255v103h305v-103h-305z" />
    <glyph glyph-name="uni00AD" unicode="&#xad;" horiz-adv-x="600" 
d="M79 255v103h305v-103h-305z" />
    <glyph glyph-name="guillemotleft" unicode="&#xab;" horiz-adv-x="627" 
d="M202 64l-169 191l169 190h145l-181 -190l181 -191h-145zM429 64l-169 191l169 190h144l-181 -190l181 -191h-144z" />
    <glyph glyph-name="guillemotright" unicode="&#xbb;" horiz-adv-x="636" 
d="M57 64l180 191l-180 190h144l169 -190l-169 -191h-144zM283 64l180 191l-180 190h144l170 -190l-170 -191h-144z" />
    <glyph glyph-name="guilsinglleft" unicode="&#x2039;" horiz-adv-x="384" 
d="M200 64l-169 191l169 190h145l-181 -190l181 -191h-145z" />
    <glyph glyph-name="guilsinglright" unicode="&#x203a;" horiz-adv-x="402" 
d="M47 64l181 191l-181 190h145l169 -190l-169 -191h-145z" />
    <glyph glyph-name="quotedblbase" unicode="&#x201e;" horiz-adv-x="492" 
d="M72 -112l74 196h122l-92 -196h-104zM235 -112l74 196h122l-93 -196h-103z" />
    <glyph glyph-name="quotedblleft" unicode="&#x201c;" horiz-adv-x="453" 
d="M140 480l-92 196h122l74 -196h-104zM303 480l-93 196h122l74 -196h-103z" />
    <glyph glyph-name="quotedblright" unicode="&#x201d;" horiz-adv-x="451" 
d="M48 480l74 196h122l-93 -196h-103zM210 480l74 196h122l-92 -196h-104z" />
    <glyph glyph-name="quoteleft" unicode="&#x2018;" horiz-adv-x="287" 
d="M139 480l-92 196h122l74 -196h-104z" />
    <glyph glyph-name="quoteright" unicode="&#x2019;" horiz-adv-x="287" 
d="M47 480l74 196h122l-92 -196h-104z" />
    <glyph glyph-name="quotesinglbase" unicode="&#x201a;" horiz-adv-x="329" 
d="M72 -112l74 196h122l-92 -196h-104z" />
    <glyph glyph-name="Euro" unicode="&#x20ac;" horiz-adv-x="705" 
d="M246 43q-79 50 -108 165h-89v83h76q-1 13 -1 43t1 44h-76v83h89q29 114 108.5 164t189.5 50q99 0 210 -44v-125q-97 45 -201 45q-58 0 -96.5 -21.5t-58.5 -68.5h232v-83h-254q-2 -28 -2 -44q0 -17 2 -43h254v-83h-232q20 -48 58.5 -69.5t96.5 -21.5q104 0 201 45v-125
q-111 -44 -210 -44q-111 0 -190 50z" />
    <glyph glyph-name="uni20B5" unicode="&#x20b5;" horiz-adv-x="630" 
d="M250.5 504.5q-45.5 -51.5 -45.5 -171.5t46.5 -170t143.5 -50q40 0 87 15t96 47v-141q-60 -31 -153 -43v-91h-114v90q-273 28 -273 343q0 319 273 346v74h114v-75q75 -10 153 -45v-141q-96 64 -190 64q-92 0 -137.5 -51.5z" />
    <glyph glyph-name="cent" unicode="&#xa2;" horiz-adv-x="502" 
d="M464 110q-55 -28 -112 -35v-75h-114v78q-90 18 -145 82.5t-55 170.5q0 116 53.5 183.5t146.5 84.5v85h114v-82q65 -8 111 -29v-128q-41 18 -73 27.5t-64 9.5q-66 0 -103 -32.5t-37 -101.5q0 -77 34.5 -114t112.5 -37q59 0 131 40v-127z" />
    <glyph glyph-name="colonmonetary" unicode="&#x20a1;" horiz-adv-x="687" 
d="M400 113q40 0 87 15t96 47v-141q-41 -21 -100 -34t-112 -13q-28 0 -42 1l-19 -36h-103l29 54q-25 8 -44 18l-40 -73h-104l70 130q-75 87 -75 252q0 349 328 349q32 0 72.5 -9t71.5 -24l-7 -28h7l-252 -465q15 -15 39 -26l277 524h103l-287 -541h5zM215 260l161 296
q-83 -5 -124.5 -56.5t-41.5 -166.5q0 -38 5 -73z" />
    <glyph glyph-name="currency" unicode="&#xa4;" horiz-adv-x="493" 
d="M404 246l49 -50l-64 -65l-51 50q-42 -25 -92 -25t-92 25l-50 -50l-64 65l48 50q-25 42 -25 93q0 50 25 92l-48 49l64 65l49 -48q44 25 93 25q51 0 93 -25l50 48l64 -65l-48 -50q24 -43 24 -91q0 -49 -25 -93zM301 277.5q22 23.5 22 61.5t-22 61.5t-56 23.5t-56.5 -23.5
t-22.5 -61.5t22.5 -61.5t56.5 -23.5t56 23.5z" />
    <glyph glyph-name="dollar" unicode="$" horiz-adv-x="577" 
d="M486 63.5q-48 -57.5 -134 -72.5v-89h-114v86q-102 6 -179 44v154q45 -36 102.5 -55.5t112.5 -19.5q94 0 94 71q0 31 -30 48.5t-97 39.5q-31 10 -38 13q-72 24 -113.5 65t-41.5 122q0 76 48 133.5t142 73.5v77h114v-74q40 -4 74 -14t71 -28v-155q-42 32 -90 53t-97 21
q-44 0 -70.5 -17.5t-26.5 -50.5q0 -26 16 -42.5t39.5 -25.5t75.5 -25q62 -18 102 -40t64 -59t24 -95q0 -81 -48 -138.5z" />
    <glyph glyph-name="dong" unicode="&#x20ab;" horiz-adv-x="437" 
d="M19 297q0 94 44 142.5t116 48.5q24 0 48.5 -3.5t35.5 -8.5v51h-75v86h75v52h114v-52h51v-86h-51v-253q0 -67 -44 -105t-134 -38q-180 0 -180 166zM263 257v132q-29 9 -49 9q-81 0 -81 -88q0 -40 19 -63.5t47 -23.5q64 0 64 34zM28 0v87h356v-87h-356z" />
    <glyph glyph-name="florin" unicode="&#x192;" horiz-adv-x="351" 
d="M6 -118v93q20 -2 30 -2q27 0 43.5 4.5t28 25.5t11.5 65v336h-85v99h85v11q3 94 49.5 135t121.5 41q38 0 54 -4v-95q-15 4 -30 4q-37 0 -60 -16t-23 -64v-12h113v-99h-113v-336q0 -101 -46.5 -146t-123.5 -45q-30 0 -55 5z" />
    <glyph glyph-name="franc" unicode="&#x20a3;" horiz-adv-x="570" 
d="M525 542h-292v-159h252v-127h-252v-78h71v-91h-71v-87h-162v87h-67v91h67v489h454v-125z" />
    <glyph glyph-name="uni20B2" unicode="&#x20b2;" horiz-adv-x="706" 
d="M635 58q-102 -56 -206 -68v-89h-114v88q-130 13 -201 97t-71 247q0 160 71.5 246t200.5 100v74h114v-74q90 -10 177 -46v-147q-68 36 -117.5 53t-100.5 17q-91 0 -135.5 -50.5t-44.5 -171.5q0 -119 45 -170.5t128 -51.5q59 0 92 16v118h-110v126h272v-314z" />
    <glyph glyph-name="uni20AD" unicode="&#x20ad;" horiz-adv-x="680" 
d="M459 0l-179 261l-47 -53v-208h-162v330h-52v92h52v245h162v-245h24l180 245h204l-218 -245h134v-92h-128l233 -330h-203z" />
    <glyph glyph-name="lira" unicode="&#x20a4;" horiz-adv-x="600" 
d="M296 525q-27 -22 -27 -60v-47h155v-98h-155v-27h155v-97h-155v-63q46 -13 71 -18.5t50 -5.5q53 0 115 38v-124q-47 -38 -112 -38q-26 0 -53 5t-63 14q-38 9 -63 13.5t-50 4.5q-65 0 -114 -37v127q17 11 32.5 15.5t28.5 6.5t18 3v59h-79v97h79v27h-79v98h79v67
q0 50 21.5 93t69 70t121.5 27q81 0 164 -48v-134q-67 54 -132 54q-50 0 -77 -22z" />
    <glyph glyph-name="uni20BA" unicode="&#x20ba;" horiz-adv-x="559" 
d="M500 175v-141q-42 -21 -101 -34t-112 -13q-136 0 -216 61v130l-51 -34v101l51 36v47l-51 -34v102l51 36v235h162v-122l98 68v-109l-98 -66v-44l98 68v-109l-98 -66v-157q30 -18 82 -18q90 2 185 63z" />
    <glyph glyph-name="uni20BC" unicode="&#x20bc;" horiz-adv-x="726" 
d="M595 604.5q60 -65.5 60 -188.5v-418h-169v411q0 58 -17.5 93.5t-54.5 48.5v-549h-114v549q-75 -30 -75 -142v-411h-154v418q0 121 61 188t168 79v84h114v-84q121 -13 181 -78.5z" />
    <glyph glyph-name="uni20A6" unicode="&#x20a6;" horiz-adv-x="724" 
d="M718 379v-91h-65v-288h-122l-220 288h-91v-288h-149v288h-65v91h65v288h138l214 -288h81v288h149v-288h65zM220 379h21l-21 27v-27zM504 270v18h-14z" />
    <glyph glyph-name="peseta" unicode="&#x20a7;" horiz-adv-x="676" 
d="M672 394h-55q-16 -84 -80 -129.5t-166 -45.5h-138v-219h-162v394h-61v92h61v181h300q109 0 173.5 -45t75.5 -136h52v-92zM423.5 369.5q23.5 25.5 23.5 69.5q0 102 -96 102h-118v-197h118q49 0 72.5 25.5z" />
    <glyph glyph-name="uni20B1" unicode="&#x20b1;" horiz-adv-x="664" 
d="M622 447q0 -23 -3 -44h53v-92h-89q-31 -45 -85 -68.5t-127 -23.5h-138v-219h-162v311h-61v92h61v44h-61v92h61v128h300q92 0 152.5 -32t84.5 -96h64v-92h-50zM423.5 369.5q23.5 25.5 23.5 69.5q0 102 -96 102h-118v-197h118q49 0 72.5 25.5z" />
    <glyph glyph-name="uni20BD" unicode="&#x20bd;" horiz-adv-x="664" 
d="M556.5 613q65.5 -54 65.5 -163q0 -111 -66.5 -171t-184.5 -60h-138v-53h83v-91h-83v-75h-162v75h-55v91h55v86h-55v91h55v324h300q120 0 185.5 -54zM423.5 369.5q23.5 25.5 23.5 69.5q0 102 -96 102h-118v-197h118q49 0 72.5 25.5z" />
    <glyph glyph-name="uni20B9" unicode="&#x20b9;" horiz-adv-x="514" 
d="M479 542h-52q14 -39 14 -86q0 -65 -36 -120.5t-100 -74.5l171 -261h-206l-133 230h-72v119h108q94 0 94 99q0 46 -22 70t-64 24h-116v125h414v-125z" />
    <glyph glyph-name="sterling" unicode="&#xa3;" horiz-adv-x="561" 
d="M296 525q-27 -22 -27 -60v-80h155v-112h-155v-140q63 -22 111 -22q60 0 125 36v-124q-49 -37 -112 -37q-42 0 -114 19q-40 9 -65 13.5t-50 4.5q-64 0 -114 -38v127q17 11 32.5 15.5t28.5 6.5t18 3v136h-79v112h79v100q0 50 21.5 93t69 70t121.5 27q81 0 164 -48v-134
q-67 54 -132 54q-50 0 -77 -22z" />
    <glyph glyph-name="uni20A9" unicode="&#x20a9;" horiz-adv-x="985" 
d="M985 667l-73 -262h37v-92h-63l-88 -313h-160l-96 313h-73l-97 -313h-160l-88 313h-97v92h71l-73 262h177l59 -262h105l76 262h125l76 -262h106l59 262h177zM497 405h17l-9 28zM307 201l32 112h-57zM703 200l25 113h-58z" />
    <glyph glyph-name="yen" unicode="&#xa5;" horiz-adv-x="691" 
d="M278 0v115h-140v87h140v81h-140v87h84l-204 297h173l158 -264l159 264h172l-204 -297h84v-87h-140v-81h140v-87h-140v-115h-142z" />
    <glyph glyph-name="uni2219" unicode="&#x2219;" horiz-adv-x="347" 
d="M108 213v121h125v-121h-125z" />
    <glyph glyph-name="uni2215" unicode="&#x2215;" horiz-adv-x="426" 
d="M-50 -22l416 707h107l-416 -707h-107z" />
    <glyph glyph-name="plus" unicode="+" horiz-adv-x="551" 
d="M227 119v132h-133v96h133v133h96v-133h132v-96h-132v-132h-96z" />
    <glyph glyph-name="minus" unicode="&#x2212;" horiz-adv-x="578" 
d="M91 207v100h396v-100h-396z" />
    <glyph glyph-name="multiply" unicode="&#xd7;" horiz-adv-x="518" 
d="M74 76l137 180l-137 180h96l90 -117l91 117h96l-138 -180l138 -180h-96l-91 117l-90 -117h-96z" />
    <glyph glyph-name="divide" unicode="&#xf7;" horiz-adv-x="628" 
d="M260 375v106h110v-106h-110zM98 211v97h434v-97h-434zM260 38v106h110v-106h-110z" />
    <glyph glyph-name="equal" unicode="=" horiz-adv-x="638" 
d="M124 397h390v-197h-390v197z" />
    <glyph glyph-name="notequal" unicode="&#x2260;" horiz-adv-x="611" 
d="M190 -14l-68 40l55 93h-67v100h125l51 88h-176v100h234l77 132l67 -39l-54 -93h67v-100h-125l-51 -88h176v-100h-234z" />
    <glyph glyph-name="greater" unicode="&#x3e;" horiz-adv-x="657" 
d="M121 39v119l270 110l-270 110v119l418 -187v-84z" />
    <glyph glyph-name="less" unicode="&#x3c;" horiz-adv-x="666" 
d="M538 39l-418 187v84l418 187v-119l-270 -110l270 -110v-119z" />
    <glyph glyph-name="greaterequal" unicode="&#x2265;" horiz-adv-x="576" 
d="M107 236v97l224 86l-224 86v97l369 -146v-74zM107 111v90h369v-90h-369z" />
    <glyph glyph-name="lessequal" unicode="&#x2264;" horiz-adv-x="576" 
d="M476 236l-369 146v74l369 146v-97l-224 -86l224 -86v-97zM107 111v90h369v-90h-369z" />
    <glyph glyph-name="plusminus" unicode="&#xb1;" horiz-adv-x="585" 
d="M247 164v132h-133v96h133v132h96v-132h132v-96h-132v-132h-96zM114 14v92h361v-92h-361z" />
    <glyph glyph-name="approxequal" unicode="&#x2248;" horiz-adv-x="629" 
d="M191 401q27 0 53 -8t68 -24q43 -16 68 -23.5t51 -7.5q56 0 97 44v-175q-40 -40 -93 -40q-27 0 -53 8t-68 24q-43 16 -68 23.5t-51 7.5q-56 0 -97 -44v174q41 41 93 41z" />
    <glyph glyph-name="asciitilde" unicode="~" horiz-adv-x="516" 
d="M98 307q31 38 72 38q19 0 39 -7t50 -21q28 -14 48.5 -21t39.5 -7q40 0 71 38v-82q-30 -37 -71 -37q-19 0 -39.5 7t-48.5 21q-33 14 -51.5 20.5t-37.5 6.5q-39 0 -72 -38v82z" />
    <glyph glyph-name="logicalnot" unicode="&#xac;" horiz-adv-x="631" 
d="M442 148v88h-345v95h437v-183h-92z" />
    <glyph glyph-name="infinity" unicode="&#x221e;" horiz-adv-x="741" 
d="M138 228q-34 16 -57 51t-23 88q0 54 23 89t57 51.5t67 16.5q91 0 164 -97q78 97 164 97q33 0 67.5 -16.5t57.5 -51.5t23 -89q0 -53 -23 -88t-57.5 -51t-67.5 -16q-87 0 -164 96q-74 -96 -164 -96q-33 0 -67 16zM329 367q-61 89 -120 89q-20 0 -47 -17t-27 -72t27 -71.5
t47 -16.5q58 0 120 88zM576.5 295.5q27.5 16.5 27.5 71.5t-27.5 72t-46.5 17q-62 0 -121 -89q61 -88 121 -88q19 0 46.5 16.5z" />
    <glyph glyph-name="integral" unicode="&#x222b;" horiz-adv-x="358" 
d="M10 -117v93q20 -3 31 -3q26 0 42.5 4.5t28 25.5t11.5 65v434q0 101 47 145t125 44q11 0 29.5 -2t24.5 -3v-94q-16 4 -31 4q-27 0 -43.5 -4.5t-28 -25t-11.5 -64.5v-433q0 -102 -46.5 -146.5t-123.5 -44.5q-30 0 -55 5z" />
    <glyph glyph-name="uni2206" unicode="&#x2206;" horiz-adv-x="729" 
d="M27 0l307 667h60l308 -667h-675zM194 112h340l-170 377z" />
    <glyph glyph-name="product" unicode="&#x220f;" horiz-adv-x="725" 
d="M161 -129v538h-124v108h651v-108h-125v-538h-107v538h-187v-538h-108z" />
    <glyph glyph-name="summation" unicode="&#x2211;" horiz-adv-x="576" 
d="M77 0v100l151 234l-151 236v97h437v-108h-300l143 -225l-143 -226h300v-108h-437z" />
    <glyph glyph-name="radical" unicode="&#x221a;" horiz-adv-x="761" 
d="M360 0l-123 296h-143v88h208l109 -279l219 562h100l-262 -667h-108z" />
    <glyph glyph-name="uni00B5" unicode="&#xb5;" horiz-adv-x="636" 
d="M99 499h142v-322q0 -31 19 -51.5t80 -20.5q39 0 74 10v384h142v-450q-34 -17 -95.5 -36.5t-141.5 -19.5q-26 0 -48.5 7t-29.5 8v-218h-142v709z" />
    <glyph glyph-name="partialdiff" unicode="&#x2202;" horiz-adv-x="609" 
d="M168 27q-54 35 -78.5 89t-24.5 114q0 113 64 159.5t167 46.5q22 0 57 -7t53 -15q-9 77 -64 108t-117 31q-30 0 -69 -8v123q40 8 81 8q66 0 134.5 -26t121.5 -108t53 -234q0 -157 -61 -236.5t-180 -79.5q-83 0 -137 35zM352 134q23 18 38.5 62.5t14.5 119.5q-46 24 -98 24
q-49 0 -74 -31.5t-25 -77.5q0 -37 20 -76t77 -39q24 0 47 18z" />
    <glyph glyph-name="percent" unicode="%" horiz-adv-x="877" 
d="M693.5 311.5q39.5 -45.5 39.5 -138.5t-39.5 -138.5t-125.5 -45.5q-81 0 -121 41t-44 125l-104 -177h-107l416 707h107l-196 -332q20 4 49 4q86 0 125.5 -45.5zM314.5 356.5q-39.5 -45.5 -125.5 -45.5t-125.5 45.5t-39.5 138.5q0 92 39.5 138t125.5 46t125.5 -45.5
t39.5 -138.5t-39.5 -138.5zM248 495q0 56 -17 77.5t-42 21.5q-23 0 -40.5 -21.5t-17.5 -77.5t17.5 -77.5t40.5 -21.5q59 0 59 99zM627 173q0 56 -17 77.5t-42 21.5q-23 0 -40.5 -21.5t-17.5 -77.5t17.5 -77.5t40.5 -21.5q59 0 59 99z" />
    <glyph glyph-name="perthousand" unicode="&#x2030;" horiz-adv-x="1237" 
d="M63.5 356.5q-39.5 45.5 -39.5 138.5q0 92 39.5 138t125.5 46t125.5 -45.5t39.5 -138.5t-39.5 -138.5t-125.5 -45.5t-125.5 45.5zM248 495q0 56 -17 77.5t-42 21.5q-23 0 -40.5 -21.5t-17.5 -77.5t17.5 -77.5t40.5 -21.5q59 0 59 99zM548.5 34.5q-39.5 45.5 -39.5 138.5
q0 92 39.5 138t125.5 46t125.5 -45.5t39.5 -138.5t-39.5 -138.5t-125.5 -45.5t-125.5 45.5zM733 173q0 56 -17 77.5t-42 21.5q-23 0 -40.5 -21.5t-17.5 -77.5t17.5 -77.5t40.5 -21.5q59 0 59 99zM922.5 34.5q-39.5 45.5 -39.5 138.5q0 92 39.5 138t125.5 46t125.5 -45.5
t39.5 -138.5t-39.5 -138.5t-125.5 -45.5t-125.5 45.5zM1107 173q0 56 -17 77.5t-42 21.5q-23 0 -40.5 -21.5t-17.5 -77.5t17.5 -77.5t40.5 -21.5q59 0 59 99zM179 -22l416 707h107l-416 -707h-107z" />
    <glyph glyph-name="lozenge" unicode="&#x25ca;" horiz-adv-x="636" 
d="M319 -36l-255 370l255 370l254 -370zM319 109l153 225l-153 226l-152 -226z" />
    <glyph glyph-name="at" unicode="@" horiz-adv-x="913" 
d="M261.5 -115.5q-75.5 34.5 -127.5 109.5t-52 188q0 118 63.5 214.5t162.5 151t200 54.5q73 0 150 -34.5t130 -108t53 -183.5q0 -66 -19.5 -123.5t-58.5 -92.5t-94 -35q-34 0 -56.5 18t-32.5 42q-17 -27 -52 -43.5t-86 -16.5q-74 0 -117 33.5t-43 91.5t47.5 102t175.5 44
q29 0 58 -3v16q-3 29 -20.5 44.5t-64.5 15.5q-75 0 -134 -22l12 78q72 24 129 24q80 0 121 -36.5t41 -108.5q0 -22 -3 -47.5l-4 -33.5q-8 -54 -8 -81q0 -59 45 -59q23 0 48 21.5t42.5 65t17.5 105.5q0 83 -41.5 144.5t-106.5 93t-131 31.5q-93 0 -177.5 -49.5t-136.5 -133
t-52 -181.5q0 -105 50.5 -166.5t113 -84.5t107.5 -23q125 0 223 50l-10 -64q-89 -42 -215 -42q-72 0 -147.5 34.5zM508.5 123q22.5 13 31.5 36t12 62q-15 2 -47 2q-138 0 -138 -72q0 -41 75 -41q44 0 66.5 13z" />
    <glyph glyph-name="ampersand" unicode="&#x26;" horiz-adv-x="685" 
d="M469 0l-35 42q-69 -55 -180 -55q-65 0 -113 25.5t-74 67.5t-26 90q0 52 31.5 100.5t102.5 85.5l-10 12q-62 78 -62 136q0 46 28 86.5t77 65t109 24.5q59 0 104 -21t70 -58.5t25 -83.5q0 -58 -34.5 -96t-110.5 -83l93 -113q17 27 23 51.5t7 26.5h110q-6 -33 -25.5 -77.5
t-44.5 -84.5l116 -141h-181zM274.5 540.5q-17.5 -16.5 -17.5 -40.5q0 -15 14 -36.5t30 -40.5l6 -7q39 22 54.5 42t15.5 43q0 25 -17 40.5t-43 15.5q-25 0 -42.5 -16.5zM360 132l-110 134q-23 -20 -35 -41.5t-12 -40.5q0 -30 17.5 -54.5t65.5 -24.5q37 0 74 27z" />
    <glyph glyph-name="paragraph" unicode="&#xb6;" horiz-adv-x="504" 
d="M335 204h-37q-126 0 -192.5 59.5t-66.5 172.5q0 112 66.5 171.5t192.5 59.5h151v-667h-114v204z" />
    <glyph glyph-name="section" unicode="&#xa7;" horiz-adv-x="589" 
d="M65 48v116q38 -31 79.5 -47.5t93.5 -16.5q38 0 70 10t32 36q0 18 -30 31.5t-107 37.5q-67 22 -104.5 51t-37.5 82q0 47 38.5 70.5t85.5 28.5q-21 5 -42 29.5t-21 54.5q0 73 59.5 109t153.5 36q85 0 167 -45v-106q-39 22 -73.5 32t-74.5 10q-36 0 -67 -10t-31 -36
q0 -15 23.5 -28.5t76.5 -29.5q52 -16 89 -32.5t62.5 -45.5t25.5 -72q0 -40 -33.5 -60.5t-73.5 -25.5q22 -13 33.5 -39.5t11.5 -55.5q0 -66 -57.5 -103t-157.5 -37q-103 0 -191 56zM387.5 288.5q11.5 7.5 11.5 19.5q0 32 -90 56q-41 10 -64 19q-23 -1 -37 -9t-14 -23
q0 -9 14 -18t52 -21q49 -15 95 -33q21 2 32.5 9.5z" />
    <glyph glyph-name="copyright" unicode="&#xa9;" horiz-adv-x="778" 
d="M218.5 38q-78.5 46 -124.5 124.5t-46 170.5q0 93 46 171.5t124.5 124.5t170.5 46q93 0 171.5 -46t124.5 -124.5t46 -171.5q0 -92 -46 -170.5t-124.5 -124.5t-171.5 -46q-92 0 -170.5 46zM533 85.5q66 38.5 104.5 104.5t38.5 143q0 78 -38.5 144t-104.5 104.5t-144 38.5
q-77 0 -143 -38.5t-104.5 -104.5t-38.5 -144q0 -77 38.5 -143t104.5 -104.5t143 -38.5q78 0 144 38.5zM264 180q-51 46 -51 154q0 107 51 153t131 46q57 0 124 -25v-73q-59 26 -118 26q-50 0 -77.5 -29t-27.5 -98t27.5 -98t77.5 -29q59 0 118 26v-73q-65 -26 -124 -26
q-80 0 -131 46z" />
    <glyph glyph-name="registered" unicode="&#xae;" horiz-adv-x="778" 
d="M219.5 38q-78.5 46 -124.5 124.5t-46 170.5q0 93 46 171.5t124.5 124.5t170.5 46q93 0 171.5 -46t124.5 -124.5t46 -171.5q0 -92 -46 -170.5t-124.5 -124.5t-171.5 -46q-92 0 -170.5 46zM534 85.5q66 38.5 104.5 104.5t38.5 143q0 78 -38.5 144t-104.5 104.5t-144 38.5
q-77 0 -143 -38.5t-104.5 -104.5t-38.5 -144q0 -77 38.5 -143t104.5 -104.5t143 -38.5q78 0 144 38.5zM250 528h151q68 0 108.5 -31.5t40.5 -90.5q0 -49 -24.5 -77.5t-57.5 -38.5l98 -151h-93l-81 138h-59v-138h-83v389zM404 342q31 0 47 16.5t16 41.5q0 26 -16 42.5
t-47 16.5h-71v-117h71z" />
    <glyph glyph-name="uniE194" unicode="&#xe194;" horiz-adv-x="778" 
d="M219.5 38q-78.5 46 -124.5 124.5t-46 170.5q0 93 46 171.5t124.5 124.5t170.5 46q93 0 171.5 -46t124.5 -124.5t46 -171.5q0 -92 -46 -170.5t-124.5 -124.5t-171.5 -46q-92 0 -170.5 46zM534 85.5q66 38.5 104.5 104t38.5 143.5t-38.5 144t-104.5 104.5t-144 38.5
q-77 0 -143 -38.5t-104.5 -104.5t-38.5 -144t38.5 -143.5t104.5 -104t143 -38.5q78 0 144 38.5zM269 528h151q70 0 107.5 -34.5t37.5 -97.5t-38 -97.5t-107 -34.5h-69v-125h-82v389zM412 334q39 0 54.5 18t15.5 44t-15.5 44.5t-54.5 18.5h-61v-125h61z" />
    <glyph glyph-name="trademark" unicode="&#x2122;" horiz-adv-x="768" 
d="M152 334v268h-103v65h277v-65h-103v-268h-71zM376 334v333h71l89 -130l89 130h71v-333h-71v226l-89 -128l-89 128v-226h-71z" />
    <glyph glyph-name="degree" unicode="&#xb0;" horiz-adv-x="387" 
d="M110 476q-28 28 -28 82t28 82.5t81 28.5t81 -28.5t28 -82.5t-28 -82t-81 -28t-81 28zM233 513q13 14 13 46q0 31 -13 45t-42 14t-42 -14t-13 -45q0 -32 13 -46t42 -14t42 14z" />
    <glyph glyph-name="bar" unicode="|" horiz-adv-x="477" 
d="M185 -99v765h114v-765h-114z" />
    <glyph glyph-name="brokenbar" unicode="&#xa6;" horiz-adv-x="477" 
d="M185 350v316h114v-316h-114zM299 218v-317h-114v317h114z" />
    <glyph glyph-name="dagger" unicode="&#x2020;" horiz-adv-x="470" 
d="M198 94v367h-112v77h112v125h76v-125h113v-77h-113v-367h-76z" />
    <glyph glyph-name="daggerdbl" unicode="&#x2021;" horiz-adv-x="501" 
d="M201 0v132h-133v96h133v171h-133v97h133v132h96v-132h132v-97h-132v-171h132v-96h-132v-132h-96z" />
    <glyph glyph-name="uni2116" unicode="&#x2116;" horiz-adv-x="1111" 
d="M87 0v667h129l269 -444v444h127v-667h-128l-270 444v-444h-127zM728 233q-46 50 -46 143t46 142.5t131 49.5t131 -49.5t46 -142.5t-46 -143t-131 -50t-131 50zM910 306.5q18 18.5 18 69.5t-17.5 69t-51.5 18t-51.5 -18t-17.5 -69t18 -69.5t51 -18.5t51 18.5zM692 38v101
h334v-101h-334z" />
    <glyph glyph-name="asciicircum" unicode="^" horiz-adv-x="582" 
d="M124 470l128 220h67l130 -220h-97l-66 131l-66 -131h-96z" />
    <glyph glyph-name="uni2120" unicode="&#x2120;" horiz-adv-x="727" 
d="M60 360v69q44 -36 101 -36q24 0 41 8.5t17 27.5q0 17 -14.5 25t-46.5 18q-32 9 -52.5 18t-35 28.5t-14.5 52.5q0 48 33.5 74.5t87.5 26.5q45 0 89 -22v-64q-41 23 -79 23q-26 0 -43 -9t-17 -28q0 -13 12.5 -19.5t41.5 -14.5q33 -9 55 -19t38 -32.5t16 -59.5
q0 -43 -34 -69.5t-86 -26.5q-65 0 -110 29zM338 335v333h70l90 -131l89 131h71v-333h-71v226l-89 -129l-89 129v-226h-71z" />
    <glyph glyph-name="uni0308" unicode="&#x308;" 
d="M-364 558v100h128v-100h-128zM-181 558v100h129v-100h-129z" />
    <glyph glyph-name="uni0307" unicode="&#x307;" 
d="M-206 551v100h121v-100h-121z" />
    <glyph glyph-name="gravecomb" unicode="&#x300;" 
d="M-120 551l-111 124h146l46 -124h-81z" />
    <glyph glyph-name="acutecomb" unicode="&#x301;" 
d="M-200 551l47 124h146l-111 -124h-82z" />
    <glyph glyph-name="uni030B" unicode="&#x30b;" 
d="M-353 558l61 117h104l-90 -117h-75zM-211 558l60 117h104l-90 -117h-74z" />
    <glyph glyph-name="uni0302" unicode="&#x302;" 
d="M-353 564l88 121h121l87 -121h-99l-49 59l-49 -59h-99z" />
    <glyph glyph-name="uni030C" unicode="&#x30c;" 
d="M-270 564l-81 121h95l43 -58l43 58h95l-73 -121h-122z" />
    <glyph glyph-name="uni0306" unicode="&#x306;" 
d="M-379 671h83q8 -24 25 -41t43 -17q46 0 67 58h84q-7 -61 -44.5 -97t-106.5 -36q-127 0 -151 133z" />
    <glyph glyph-name="uni030A" unicode="&#x30a;" 
d="M-296.5 559.5q-30.5 24.5 -30.5 70.5t30.5 70.5t88.5 24.5t88.5 -24.5t30.5 -70.5q0 -47 -30.5 -71t-88.5 -24t-88.5 24.5zM-171 601.5q11 8.5 11 28.5t-11 28t-37 8t-37 -8t-11 -28t11 -28.5t37 -8.5t37 8.5z" />
    <glyph glyph-name="tildecomb" unicode="&#x303;" 
d="M-419 545q-2 38 12 70t40.5 51t60.5 19q25 0 45.5 -9.5t46.5 -27.5q19 -14 32.5 -20.5t27.5 -6.5q37 0 33 59h73q2 -63 -30.5 -100.5t-81.5 -37.5q-34 0 -56.5 11t-48.5 30q-18 13 -27 18t-20 5q-20 0 -30 -18t-8 -43h-69z" />
    <glyph glyph-name="uni0304" unicode="&#x304;" 
d="M-342 552v95h276v-95h-276z" />
    <glyph glyph-name="hookabovecomb" unicode="&#x309;" 
d="M-153 599q17 1 27 8t10 16q0 24 -42 24q-13 0 -30 -3v58q22 5 58 5q50 0 81 -19t31 -59q0 -28 -15 -45t-42 -18v-24h-78v57z" />
    <glyph glyph-name="uni030F" unicode="&#x30f;" 
d="M-309 551l-111 124h146l46 -124h-81zM-125 551l-111 124h146l46 -124h-81z" />
    <glyph glyph-name="uni0311" unicode="&#x311;" 
d="M-121.5 622q37.5 -36 44.5 -97h-84q-21 58 -67 58q-26 0 -43 -17t-25 -41h-83q24 133 151 133q69 0 106.5 -36z" />
    <glyph glyph-name="uni031B" unicode="&#x31b;" 
d="M-269 504q33 0 53.5 12.5t20.5 35.5v37h91v-56q0 -55 -44 -82t-118 -29z" />
    <glyph glyph-name="dotbelowcmb" unicode="&#x323;" 
d="M-158 -150v100h108v-100h-108z" />
    <glyph glyph-name="uni0324" unicode="&#x324;" 
d="M-364 -142v100h128v-100h-128zM-181 -142v100h129v-100h-129z" />
    <glyph glyph-name="uniF6C3" unicode="&#xf6c3;" 
d="M-209 -125q23 6 31 24t8 51h112q2 -64 -39 -103t-112 -41v69z" />
    <glyph glyph-name="uni0326" unicode="&#x326;" 
d="M-209 -125q23 6 31 24t8 51h112q2 -64 -39 -103t-112 -41v69z" />
    <glyph glyph-name="uni0327" unicode="&#x327;" 
d="M-230 -133l90 128h96l-52 -128h-134z" />
    <glyph glyph-name="uni0328" unicode="&#x328;" 
d="M-276 -164q-31 24 -31 72q0 68 119 115l96 -23q-44 -18 -70.5 -38t-26.5 -39q0 -20 9 -28t26 -8q29 0 65 34v-85q-19 -11 -39.5 -17.5t-51.5 -6.5q-65 0 -96 24z" />
    <glyph glyph-name="uni032E" unicode="&#x32e;" 
d="M-379 -14h83q8 -24 25 -41t43 -17q46 0 67 58h84q-7 -61 -44.5 -97t-106.5 -36q-127 0 -151 133z" />
    <glyph glyph-name="uni0331" unicode="&#x331;" 
d="M-342 -144v95h276v-95h-276z" />
    <glyph glyph-name="uni0335" unicode="&#x335;" 
d="M-341 271v91h300v-91h-300z" />
    <glyph glyph-name="uni0326.alt" 
d="M-209 -125q23 6 31 24t8 51h112q2 -64 -39 -103t-112 -41v69z" />
    <glyph glyph-name="uni0308.case" 
d="M-364 596v100h128v-100h-128zM-181 596v100h129v-100h-129z" />
    <glyph glyph-name="uni0307.case" 
d="M-206 593v100h121v-100h-121z" />
    <glyph glyph-name="gravecomb.case" 
d="M-132 548l-97 111h132l47 -111h-82z" />
    <glyph glyph-name="acutecomb.case" 
d="M-205 551l36 113h156l-118 -113h-74z" />
    <glyph glyph-name="uni030B.case" 
d="M-353 600l61 117h104l-90 -117h-75zM-211 600l60 117h104l-90 -117h-74z" />
    <glyph glyph-name="uni0302.case" 
d="M-360 666l88 121h121l87 -121h-99l-49 59l-49 -59h-99z" />
    <glyph glyph-name="uni030C.case" 
d="M-270 606l-81 121h95l43 -58l43 58h95l-73 -121h-122z" />
    <glyph glyph-name="uni0306.case" 
d="M-379 713h83q8 -24 25 -41t43 -17q46 0 67 58h84q-7 -61 -44.5 -97t-106.5 -36q-127 0 -151 133z" />
    <glyph glyph-name="uni030A.case" 
d="M-297.5 596.5q-30.5 24.5 -30.5 70.5t30.5 70.5t88.5 24.5t88.5 -24.5t30.5 -70.5q0 -47 -30.5 -71t-88.5 -24t-88.5 24.5zM-172 638.5q11 8.5 11 28.5t-11 28t-37 8t-37 -8t-11 -28t11 -28.5t37 -8.5t37 8.5z" />
    <glyph glyph-name="tildecomb.case" 
d="M-437 602q-2 38 12 70t40.5 51t60.5 19q25 0 45.5 -9.5t46.5 -27.5q19 -14 32.5 -20.5t27.5 -6.5q37 0 33 59h73q2 -63 -30.5 -100.5t-81.5 -37.5q-34 0 -56.5 11t-48.5 30q-18 13 -27 18t-20 5q-20 0 -30 -18t-8 -43h-69z" />
    <glyph glyph-name="uni0304.case" 
d="M-342 594v95h276v-95h-276z" />
    <glyph glyph-name="hookabovecomb.case" 
d="M-153 641q17 1 27 8t10 16q0 24 -42 24q-13 0 -30 -3v58q22 5 58 5q50 0 81 -19t31 -59q0 -28 -15 -45t-42 -18v-24h-78v57z" />
    <glyph glyph-name="uni030F.case" 
d="M-287 552l-97 111h132l47 -111h-82zM-116 552l-97 111h132l47 -111h-82z" />
    <glyph glyph-name="uni0311.case" 
d="M-121.5 678q37.5 -36 44.5 -97h-84q-21 58 -67 58q-26 0 -43 -17t-25 -41h-83q24 133 151 133q69 0 106.5 -36z" />
    <glyph glyph-name="uni031B.case" 
d="M-269 546q33 0 53.5 12.5t20.5 35.5v37h91v-56q0 -55 -44 -82t-118 -29z" />
    <glyph glyph-name="dotbelowcomb.case" 
d="M-158 -150v100h108v-100h-108z" />
    <glyph glyph-name="uni0324.case" 
d="M-364 -142v100h128v-100h-128zM-181 -142v100h129v-100h-129z" />
    <glyph glyph-name="uni0326.case" 
d="M-209 -125q23 6 31 24t8 51h112q2 -64 -39 -103t-112 -41v69z" />
    <glyph glyph-name="uni0327.case" 
d="M-230 -133l90 128h96l-52 -128h-134z" />
    <glyph glyph-name="uni0328.case" 
d="M-276 -164q-31 24 -31 72q0 68 119 115l96 -23q-44 -18 -70.5 -38t-26.5 -39q0 -20 9 -28t26 -8q29 0 65 34v-85q-19 -11 -39.5 -17.5t-51.5 -6.5q-65 0 -96 24z" />
    <glyph glyph-name="uni032E.case" 
d="M-379 -42h83q8 -24 25 -41t43 -17q46 0 67 58h84q-7 -61 -44.5 -97t-106.5 -36q-127 0 -151 133z" />
    <glyph glyph-name="uni0331.case" 
d="M-342 -144v95h276v-95h-276z" />
    <glyph glyph-name="uni02C9" unicode="&#x2c9;" horiz-adv-x="397" 
d="M61 655v95h276v-95h-276z" />
    <glyph glyph-name="acute" unicode="&#xb4;" horiz-adv-x="262" 
d="M62 551l47 124h146l-111 -124h-82z" />
    <glyph glyph-name="breve" unicode="&#x2d8;" horiz-adv-x="448" 
d="M69 671h83q8 -24 25 -41t43 -17q46 0 67 58h84q-7 -61 -44.5 -97t-106.5 -36q-126 0 -151 133z" />
    <glyph glyph-name="caron" unicode="&#x2c7;" horiz-adv-x="421" 
d="M151 564l-81 121h95l43 -58l43 58h95l-73 -121h-122z" />
    <glyph glyph-name="cedilla" unicode="&#xb8;" horiz-adv-x="276" 
d="M46 -133l90 128h96l-52 -128h-134z" />
    <glyph glyph-name="circumflex" unicode="&#x2c6;" horiz-adv-x="420" 
d="M67 564l88 121h121l87 -121h-99l-49 59l-49 -59h-99z" />
    <glyph glyph-name="dieresis" unicode="&#xa8;" horiz-adv-x="430" 
d="M59 558v100h128v-100h-128zM242 558v100h129v-100h-129z" />
    <glyph glyph-name="dotaccent" unicode="&#x2d9;" horiz-adv-x="265" 
d="M73 551v100h121v-100h-121z" />
    <glyph glyph-name="grave" unicode="`" horiz-adv-x="261" 
d="M141 551l-111 124h146l46 -124h-81z" />
    <glyph glyph-name="hungarumlaut" unicode="&#x2dd;" horiz-adv-x="413" 
d="M60 558l61 117h104l-90 -117h-75zM202 558l60 117h104l-90 -117h-74z" />
    <glyph glyph-name="macron" unicode="&#xaf;" horiz-adv-x="397" 
d="M61 552v95h276v-95h-276z" />
    <glyph glyph-name="ogonek" unicode="&#x2db;" horiz-adv-x="362" 
d="M86 -164q-31 24 -31 72q0 68 119 115l96 -23q-44 -18 -70.5 -38t-26.5 -39q0 -20 9 -28t26 -8q29 0 65 34v-85q-19 -11 -39.5 -17.5t-51.5 -6.5q-65 0 -96 24z" />
    <glyph glyph-name="ring" unicode="&#x2da;" horiz-adv-x="409" 
d="M112.5 559.5q-30.5 24.5 -30.5 70.5t30.5 70.5t88.5 24.5t88.5 -24.5t30.5 -70.5q0 -47 -30.5 -71t-88.5 -24t-88.5 24.5zM238 601.5q11 8.5 11 28.5t-11 28t-37 8t-37 -8t-11 -28t11 -28.5t37 -8.5t37 8.5z" />
    <glyph glyph-name="tilde" unicode="&#x2dc;" horiz-adv-x="479" 
d="M60 531q-2 38 12 70t40.5 51t60.5 19q25 0 45.5 -9.5t46.5 -27.5q19 -14 32.5 -20.5t27.5 -6.5q37 0 33 59h73q2 -63 -30.5 -100.5t-81.5 -37.5q-34 0 -56.5 11t-48.5 30q-18 13 -27 18t-20 5q-20 0 -30 -18t-8 -43h-69z" />
    <glyph glyph-name="uni03060301" 
d="M-368 671h83q8 -24 25 -41t43 -17q46 0 67 58h84q-7 -61 -44.5 -97t-106.5 -36q-127 0 -151 133zM-260 698l36 113h156l-118 -113h-74z" />
    <glyph glyph-name="uni03060300" 
d="M-366 671h83q8 -24 25 -41t43 -17q46 0 67 58h84q-7 -61 -44.5 -97t-106.5 -36q-127 0 -151 133zM-254 687l-111 124h146l46 -124h-81z" />
    <glyph glyph-name="uni03060309" 
d="M-379 671h83q8 -24 25 -41t43 -17q46 0 67 58h84q-7 -61 -44.5 -97t-106.5 -36q-127 0 -151 133zM-262 744q17 1 27 8t10 16q0 24 -42 24q-13 0 -30 -3v58q22 5 58 5q50 0 81 -19t31 -59q0 -28 -15 -45t-42 -18v-24h-78v57z" />
    <glyph glyph-name="uni03060303" 
d="M-404 671h83q8 -24 25 -41t43 -17q46 0 67 58h84q-7 -61 -44.5 -97t-106.5 -36q-127 0 -151 133zM-431 705q-2 38 12 70t40.5 51t60.5 19q25 0 45.5 -9.5t46.5 -27.5q19 -14 32.5 -20.5t27.5 -6.5q37 0 33 59h73q2 -63 -30.5 -100.5t-81.5 -37.5q-34 0 -56.5 11t-48.5 30
q-18 13 -27 18t-20 5q-20 0 -30 -18t-8 -43h-69z" />
    <glyph glyph-name="uni03020301" 
d="M-451 564l88 121h121l87 -121h-99l-49 59l-49 -59h-99zM-184 637l36 113h156l-118 -113h-74z" />
    <glyph glyph-name="uni03020300" 
d="M-434 564l88 121h121l87 -121h-99l-49 59l-49 -59h-99zM-502 636l-97 111h132l47 -111h-82z" />
    <glyph glyph-name="uni03020309" 
d="M-360 548l88 121h121l87 -121h-99l-49 59l-49 -59h-99zM-84 667q17 1 27 8t10 16q0 24 -42 24q-13 0 -30 -3v58q22 5 58 5q50 0 81 -19t31 -59q0 -28 -15 -45t-42 -18v-24h-78v57z" />
    <glyph glyph-name="uni03020303" 
d="M-340 558l88 121h121l87 -121h-99l-49 59l-49 -59h-99zM-377 722q-2 38 12 70t40.5 51t60.5 19q25 0 45.5 -9.5t46.5 -27.5q19 -14 32.5 -20.5t27.5 -6.5q37 0 33 59h73q2 -63 -30.5 -100.5t-81.5 -37.5q-34 0 -56.5 11t-48.5 30q-18 13 -27 18t-20 5q-20 0 -30 -18
t-8 -43h-69z" />
    <glyph glyph-name="IJacute" horiz-adv-x="783" 
d="M71 0v667h162v-667h-162zM339 24v148q40 -28 66 -41.5t52 -13.5q92 0 92 93v457h162v-464q0 -115 -62 -165.5t-153 -50.5q-78 0 -157 37zM104 719l36 113h156l-118 -113h-74zM585 719l36 113h156l-118 -113h-74z" />
    <glyph glyph-name="ijacute" horiz-adv-x="589" 
d="M66 0v499h149l1 -499h-150zM285 -86q42 0 65 16.5t23 56.5v512h142v-503q0 -102 -61 -145.5t-169 -43.5v107zM99 551l47 124h146l-111 -124h-82zM398 551l47 124h146l-111 -124h-82z" />
    <glyph glyph-name="caronalt" horiz-adv-x="333" 
d="M82 543l74 196h122l-92 -196h-104z" />
    <glyph glyph-name="uni00A0" unicode="&#xa0;" horiz-adv-x="276" 
 />
    <glyph glyph-name="uniF6C9" unicode="&#xf6c9;" horiz-adv-x="263" 
d="M59 724l61 116h104l-90 -116h-75z" />
    <glyph glyph-name="uniF6CA" unicode="&#xf6ca;" horiz-adv-x="433" 
d="M193 724l-108 122h88l43 -52l43 52h88l-108 -122h-46z" />
    <glyph glyph-name="uniF6CB" unicode="&#xf6cb;" horiz-adv-x="408" 
d="M71 724v100h108v-100h-108zM235 724v100h108v-100h-108z" />
    <glyph glyph-name="uniF6CE" unicode="&#xf6ce;" horiz-adv-x="253" 
d="M135 724l-90 116h104l61 -116h-75z" />
    <glyph glyph-name="uniF6CF" unicode="&#xf6cf;" horiz-adv-x="410" 
d="M60 724l61 116h104l-90 -116h-75zM202 724l60 116h104l-90 -116h-74z" />
    <glyph glyph-name="uniF6D0" unicode="&#xf6d0;" horiz-adv-x="403" 
d="M86 728v77h234v-77h-234z" />
    </font>
</defs>
</svg>
